  0
SECTION
  2
HEADER
  9
$ACADVER
  1
AC1015
  9
$ACADMAINTVER
 70
     6
  9
$DWGCODEPAGE
  3
ANSI_1252
  9
$INSBASE
 10
0.0
 20
0.0
 30
0.0
  9
$EXTMIN
 10
0.0
 20
0.0
 30
0.0
  9
$EXTMAX
 10
297.0000000000002
 20
210.0000000000001
 30
0.0
  9
$LIMMIN
 10
0.0
 20
0.0
  9
$LIMMAX
 10
12.0
 20
9.0
  9
$ORTHOMODE
 70
     0
  9
$REGENMODE
 70
     1
  9
$FILLMODE
 70
     1
  9
$QTEXTMODE
 70
     0
  9
$MIRRTEXT
 70
     1
  9
$LTSCALE
 40
1.0
  9
$ATTMODE
 70
     1
  9
$TEXTSIZE
 40
0.2
  9
$TRACEWID
 40
0.05
  9
$TEXTSTYLE
  7
Standard
  9
$CLAYER
  8
0
  9
$CELTYPE
  6
ByLayer
  9
$CECOLOR
 62
   256
  9
$CELTSCALE
 40
1.0
  9
$DISPSILH
 70
     0
  9
$DIMSCALE
 40
1.0
  9
$DIMASZ
 40
0.18
  9
$DIMEXO
 40
0.0625
  9
$DIMDLI
 40
0.38
  9
$DIMRND
 40
0.0
  9
$DIMDLE
 40
0.0
  9
$DIMEXE
 40
0.18
  9
$DIMTP
 40
0.0
  9
$DIMTM
 40
0.0
  9
$DIMTXT
 40
0.18
  9
$DIMCEN
 40
0.09
  9
$DIMTSZ
 40
0.0
  9
$DIMTOL
 70
     0
  9
$DIMLIM
 70
     0
  9
$DIMTIH
 70
     1
  9
$DIMTOH
 70
     1
  9
$DIMSE1
 70
     0
  9
$DIMSE2
 70
     0
  9
$DIMTAD
 70
     0
  9
$DIMZIN
 70
     0
  9
$DIMBLK
  1

  9
$DIMASO
 70
     1
  9
$DIMSHO
 70
     1
  9
$DIMPOST
  1

  9
$DIMAPOST
  1

  9
$DIMALT
 70
     0
  9
$DIMALTD
 70
     2
  9
$DIMALTF
 40
25.4
  9
$DIMLFAC
 40
1.0
  9
$DIMTOFL
 70
     0
  9
$DIMTVP
 40
0.0
  9
$DIMTIX
 70
     0
  9
$DIMSOXD
 70
     0
  9
$DIMSAH
 70
     0
  9
$DIMBLK1
  1

  9
$DIMBLK2
  1

  9
$DIMSTYLE
  2
Standard
  9
$DIMCLRD
 70
     0
  9
$DIMCLRE
 70
     0
  9
$DIMCLRT
 70
     0
  9
$DIMTFAC
 40
1.0
  9
$DIMGAP
 40
0.09
  9
$DIMJUST
 70
     0
  9
$DIMSD1
 70
     0
  9
$DIMSD2
 70
     0
  9
$DIMTOLJ
 70
     1
  9
$DIMTZIN
 70
     0
  9
$DIMALTZ
 70
     0
  9
$DIMALTTZ
 70
     0
  9
$DIMUPT
 70
     0
  9
$DIMDEC
 70
     4
  9
$DIMTDEC
 70
     4
  9
$DIMALTU
 70
     2
  9
$DIMALTTD
 70
     2
  9
$DIMTXSTY
  7
Standard
  9
$DIMAUNIT
 70
     0
  9
$DIMADEC
 70
     0
  9
$DIMALTRND
 40
0.0
  9
$DIMAZIN
 70
     0
  9
$DIMDSEP
 70
    46
  9
$DIMATFIT
 70
     3
  9
$DIMFRAC
 70
     0
  9
$DIMLDRBLK
  1

  9
$DIMLUNIT
 70
     2
  9
$DIMLWD
 70
    -2
  9
$DIMLWE
 70
    -2
  9
$DIMTMOVE
 70
     0
  9
$LUNITS
 70
     2
  9
$LUPREC
 70
     4
  9
$SKETCHINC
 40
0.1
  9
$FILLETRAD
 40
0.5
  9
$AUNITS
 70
     0
  9
$AUPREC
 70
     0
  9
$MENU
  1
.
  9
$ELEVATION
 40
0.0
  9
$PELEVATION
 40
0.0
  9
$THICKNESS
 40
0.0
  9
$LIMCHECK
 70
     0
  9
$CHAMFERA
 40
0.5
  9
$CHAMFERB
 40
0.5
  9
$CHAMFERC
 40
1.0
  9
$CHAMFERD
 40
0.0
  9
$SKPOLY
 70
     0
  9
$TDCREATE
 40
2456997.611438669
  9
$TDUCREATE
 40
2456997.569772002
  9
$TDUPDATE
 40
2456997.611439028
  9
$TDUUPDATE
 40
2456997.569772361
  9
$TDINDWG
 40
0.0000000116
  9
$TDUSRTIMER
 40
0.0000000116
  9
$USRTIMER
 70
     1
  9
$ANGBASE
 50
0.0
  9
$ANGDIR
 70
     0
  9
$PDMODE
 70
     0
  9
$PDSIZE
 40
0.0
  9
$PLINEWID
 40
0.0
  9
$SPLFRAME
 70
     0
  9
$SPLINETYPE
 70
     6
  9
$SPLINESEGS
 70
     8
  9
$HANDSEED
  5
5C1
  9
$SURFTAB1
 70
     6
  9
$SURFTAB2
 70
     6
  9
$SURFTYPE
 70
     6
  9
$SURFU
 70
     6
  9
$SURFV
 70
     6
  9
$UCSBASE
  2

  9
$UCSNAME
  2

  9
$UCSORG
 10
0.0
 20
0.0
 30
0.0
  9
$UCSXDIR
 10
1.0
 20
0.0
 30
0.0
  9
$UCSYDIR
 10
0.0
 20
1.0
 30
0.0
  9
$UCSORTHOREF
  2

  9
$UCSORTHOVIEW
 70
     0
  9
$UCSORGTOP
 10
0.0
 20
0.0
 30
0.0
  9
$UCSORGBOTTOM
 10
0.0
 20
0.0
 30
0.0
  9
$UCSORGLEFT
 10
0.0
 20
0.0
 30
0.0
  9
$UCSORGRIGHT
 10
0.0
 20
0.0
 30
0.0
  9
$UCSORGFRONT
 10
0.0
 20
0.0
 30
0.0
  9
$UCSORGBACK
 10
0.0
 20
0.0
 30
0.0
  9
$PUCSBASE
  2

  9
$PUCSNAME
  2

  9
$PUCSORG
 10
0.0
 20
0.0
 30
0.0
  9
$PUCSXDIR
 10
1.0
 20
0.0
 30
0.0
  9
$PUCSYDIR
 10
0.0
 20
1.0
 30
0.0
  9
$PUCSORTHOREF
  2

  9
$PUCSORTHOVIEW
 70
     0
  9
$PUCSORGTOP
 10
0.0
 20
0.0
 30
0.0
  9
$PUCSORGBOTTOM
 10
0.0
 20
0.0
 30
0.0
  9
$PUCSORGLEFT
 10
0.0
 20
0.0
 30
0.0
  9
$PUCSORGRIGHT
 10
0.0
 20
0.0
 30
0.0
  9
$PUCSORGFRONT
 10
0.0
 20
0.0
 30
0.0
  9
$PUCSORGBACK
 10
0.0
 20
0.0
 30
0.0
  9
$USERI1
 70
     0
  9
$USERI2
 70
     0
  9
$USERI3
 70
     0
  9
$USERI4
 70
     0
  9
$USERI5
 70
     0
  9
$USERR1
 40
18.1
  9
$USERR2
 40
0.0
  9
$USERR3
 40
0.0
  9
$USERR4
 40
0.0
  9
$USERR5
 40
0.0
  9
$WORLDVIEW
 70
     1
  9
$SHADEDGE
 70
     3
  9
$SHADEDIF
 70
    70
  9
$TILEMODE
 70
     1
  9
$MAXACTVP
 70
    64
  9
$PINSBASE
 10
0.0
 20
0.0
 30
0.0
  9
$PLIMCHECK
 70
     0
  9
$PEXTMIN
 10
1.00000000000000E+20
 20
1.00000000000000E+20
 30
1.00000000000000E+20
  9
$PEXTMAX
 10
-1.00000000000000E+20
 20
-1.00000000000000E+20
 30
-1.00000000000000E+20
  9
$PLIMMIN
 10
0.0
 20
0.0
  9
$PLIMMAX
 10
12.0
 20
9.0
  9
$UNITMODE
 70
     0
  9
$VISRETAIN
 70
     1
  9
$PLINEGEN
 70
     0
  9
$PSLTSCALE
 70
     1
  9
$TREEDEPTH
 70
  3020
  9
$CMLSTYLE
  2
Standard
  9
$CMLJUST
 70
     0
  9
$CMLSCALE
 40
1.0
  9
$PROXYGRAPHICS
 70
     1
  9
$MEASUREMENT
 70
     1
  9
$CELWEIGHT
370
    -1
  9
$ENDCAPS
280
     0
  9
$JOINSTYLE
280
     0
  9
$LWDISPLAY
290
     0
  9
$INSUNITS
 70
     4
  9
$HYPERLINKBASE
  1

  9
$STYLESHEET
  1

  9
$XEDIT
290
     1
  9
$CEPSNTYPE
380
     0
  9
$PSTYLEMODE
290
     1
  9
$FINGERPRINTGUID
  2
{2867E29C-F064-439D-9874-4BE8A4A311A0}
  9
$VERSIONGUID
  2
{FAEB1C32-E019-11D5-929B-00C0DF256EC4}
  9
$EXTNAMES
290
     1
  9
$PSVPSCALE
 40
0.0
  9
$OLESTARTUP
290
     0
  0
ENDSEC
  0
SECTION
  2
CLASSES
  0
CLASS
  1
ACDBDICTIONARYWDFLT
  2
AcDbDictionaryWithDefault
  3
ObjectDBX Classes
 90
        0
280
     0
281
     0
  0
CLASS
  1
VISUALSTYLE
  2
AcDbVisualStyle
  3
ObjectDBX Classes
 90
     4095
280
     0
281
     0
  0
CLASS
  1
MATERIAL
  2
AcDbMaterial
  3
ObjectDBX Classes
 90
     1153
280
     0
281
     0
  0
CLASS
  1
DICTIONARYVAR
  2
AcDbDictionaryVar
  3
ObjectDBX Classes
 90
        0
280
     0
281
     0
  0
CLASS
  1
ACDBPLACEHOLDER
  2
AcDbPlaceHolder
  3
ObjectDBX Classes
 90
        0
280
     0
281
     0
  0
CLASS
  1
LAYOUT
  2
AcDbLayout
  3
ObjectDBX Classes
 90
        0
280
     0
281
     0
  0
ENDSEC
  0
SECTION
  2
TABLES
  0
TABLE
  2
VPORT
  5
8
330
0
100
AcDbSymbolTable
 70
     1
  0
VPORT
  5
29
330
8
100
AcDbSymbolTableRecord
100
AcDbViewportTableRecord
  2
*Active
 70
     0
 10
0.0
 20
0.0
 11
1.0
 21
1.0
 12
148.5000000000001
 22
105.0000000000001
 13
0.0
 23
0.0
 14
0.5
 24
0.5
 15
0.5
 25
0.5
 16
0.0
 26
0.0
 36
1.0
 17
0.0
 27
0.0
 37
0.0
 40
231.0000000000001
 41
1.60267857142857
 42
50.0
 43
0.0
 44
0.0
 50
0.0
 51
0.0
 71
     0
 72
   100
 73
     1
 74
     3
 75
     0
 76
     0
 77
     0
 78
     0
281
     0
 65
     1
110
0.0
120
0.0
130
0.0
111
1.0
121
0.0
131
0.0
112
0.0
122
1.0
132
0.0
 79
     0
146
0.0
  0
ENDTAB
  0
TABLE
  2
LTYPE
  5
5
330
0
100
AcDbSymbolTable
 70
    10
  0
LTYPE
  5
14
330
5
100
AcDbSymbolTableRecord
100
AcDbLinetypeTableRecord
  2
ByBlock
 70
     0
  3

 72
    65
 73
     0
 40
0.0
  0
LTYPE
  5
15
330
5
100
AcDbSymbolTableRecord
100
AcDbLinetypeTableRecord
  2
ByLayer
 70
     0
  3

 72
    65
 73
     0
 40
0.0
  0
LTYPE
  5
16
330
5
100
AcDbSymbolTableRecord
100
AcDbLinetypeTableRecord
  2
Continuous
 70
     0
  3
Solid line
 72
    65
 73
     0
 40
0.0
  0
LTYPE
  5
3F
330
5
100
AcDbSymbolTableRecord
100
AcDbLinetypeTableRecord
  2
DASHED
 70
     0
  3
Dashed
 72
    65
 73
     2
 40
15.0
 49
7.0
 74
     0
 49
-8.0
 74
     0
  0
LTYPE
  5
40
330
5
100
AcDbSymbolTableRecord
100
AcDbLinetypeTableRecord
  2
DOTTED
 70
     0
  3
Dotted
 72
    65
 73
     2
 40
1.0
 49
0.0
 74
     0
 49
-1.0
 74
     0
  0
LTYPE
  5
41
330
5
100
AcDbSymbolTableRecord
100
AcDbLinetypeTableRecord
  2
DOT_CENTER
 70
     0
  3
Dot_Center
 72
    65
 73
     4
 40
14.0
 49
12.0
 74
     0
 49
-1.0
 74
     0
 49
0.0
 74
     0
 49
-1.0
 74
     0
  0
LTYPE
  5
42
330
5
100
AcDbSymbolTableRecord
100
AcDbLinetypeTableRecord
  2
LONG_DASHED
 70
     0
  3
Long_Dashed
 72
    65
 73
     2
 40
15.0
 49
10.0
 74
     0
 49
-5.0
 74
     0
  0
LTYPE
  5
43
330
5
100
AcDbSymbolTableRecord
100
AcDbLinetypeTableRecord
  2
DASH_CENTER
 70
     0
  3
Dash_Center
 72
    65
 73
     4
 40
14.0
 49
11.0
 74
     0
 49
-1.0
 74
     0
 49
1.0
 74
     0
 49
-1.0
 74
     0
  0
LTYPE
  5
44
330
5
100
AcDbSymbolTableRecord
100
AcDbLinetypeTableRecord
  2
PHANTOM
 70
     0
  3
Phantom
 72
    65
 73
     6
 40
13.0
 49
10.0
 74
     0
 49
-1.0
 74
     0
 49
0.0
 74
     0
 49
-1.0
 74
     0
 49
0.0
 74
     0
 49
-1.0
 74
     0
  0
LTYPE
  5
45
330
5
100
AcDbSymbolTableRecord
100
AcDbLinetypeTableRecord
  2
CENTER_DASH_DASH
 70
     0
  3
Center_Dash_Dash
 72
    65
 73
     6
 40
14.0
 49
9.0
 74
     0
 49
-1.0
 74
     0
 49
1.0
 74
     0
 49
-1.0
 74
     0
 49
1.0
 74
     0
 49
-1.0
 74
     0
  0
LTYPE
  5
46
330
5
100
AcDbSymbolTableRecord
100
AcDbLinetypeTableRecord
  2
CHAIN
 70
     0
  3
CHAIN
 72
    65
 73
     4
 40
4.0
 49
1.0
 74
     0
 49
-1.0
 74
     0
 49
1.0
 74
     0
 49
-1.0
 74
     0
  0
LTYPE
  5
47
330
5
100
AcDbSymbolTableRecord
100
AcDbLinetypeTableRecord
  2
DASHED_SPACE
 70
     0
  3
DASHED_SPACE
 72
    65
 73
     2
 40
2.0
 49
1.0
 74
     0
 49
-1.0
 74
     0
  0
ENDTAB
  0
TABLE
  2
LAYER
  5
2
330
0
100
AcDbSymbolTable
 70
     8
  0
LAYER
  5
10
330
2
100
AcDbSymbolTableRecord
100
AcDbLayerTableRecord
  2
0
 70
     0
 62
     7
  6
Continuous
370
    -3
390
F
  0
LAYER
  5
48
330
2
100
AcDbSymbolTableRecord
100
AcDbLayerTableRecord
  2
1
 70
     0
 62
     7
  6
Continuous
370
    -3
390
F
  0
LAYER
  5
49
330
2
100
AcDbSymbolTableRecord
100
AcDbLayerTableRecord
  2
Bemaßungen_TC_020513_DIN_
 70
     0
 62
     7
  6
Continuous
370
    -3
390
F
  0
LAYER
  5
4A
330
2
100
AcDbSymbolTableRecord
100
AcDbLayerTableRecord
  2
Mittellinie_TC_020513_DIN_
 70
     0
 62
     7
  6
Continuous
370
    -3
390
F
  0
LAYER
  5
4B
330
2
100
AcDbSymbolTableRecord
100
AcDbLayerTableRecord
  2
Mittelpunktmarkierung_TC_020513_DIN_
 70
     0
 62
     7
  6
Continuous
370
    -3
390
F
  0
LAYER
  5
4C
330
2
100
AcDbSymbolTableRecord
100
AcDbLayerTableRecord
  2
Sichtbare_Kanten_TC_020513_DIN_
 70
     0
 62
     7
  6
Continuous
370
    -3
390
F
  0
LAYER
  5
4D
330
2
100
AcDbSymbolTableRecord
100
AcDbLayerTableRecord
  2
Stich_1-Linien_TC_020513_DIN_
 70
     0
 62
     7
  6
Continuous
370
    -3
390
F
  0
LAYER
  5
4E
330
2
100
AcDbSymbolTableRecord
100
AcDbLayerTableRecord
  2
Symbole_TC_020513_DIN_
 70
     0
 62
     7
  6
Continuous
370
    -3
390
F
  0
ENDTAB
  0
TABLE
  2
STYLE
  5
3
330
0
100
AcDbSymbolTable
 70
     4
  0
STYLE
  5
11
330
3
100
AcDbSymbolTableRecord
100
AcDbTextStyleTableRecord
  2
Standard
 70
     0
 40
0.0
 41
1.0
 50
0.0
 71
     0
 42
0.2
  3
txt
  4

  0
STYLE
  5
A3
330
3
100
AcDbSymbolTableRecord
100
AcDbTextStyleTableRecord
  2
CONVERTER_11
 70
     0
 40
0.0
 41
1.2
 50
0.0
 71
     0
 42
0.2
  3
ARIAL.TTF
  4

  0
STYLE
  5
A8
330
3
100
AcDbSymbolTableRecord
100
AcDbTextStyleTableRecord
  2
CONVERTER_12
 70
     0
 40
0.0
 41
1.38
 50
0.0
 71
     0
 42
0.2
  3
ARIAL.TTF
  4

  0
STYLE
  5
526
330
3
100
AcDbSymbolTableRecord
100
AcDbTextStyleTableRecord
  2
CONVERTER_13
 70
     0
 40
0.0
 41
0.75
 50
0.0
 71
     0
 42
0.2
  3
txt.shx
  4

  0
ENDTAB
  0
TABLE
  2
VIEW
  5
6
330
0
100
AcDbSymbolTable
 70
     0
  0
ENDTAB
  0
TABLE
  2
UCS
  5
7
330
0
100
AcDbSymbolTable
 70
     0
  0
ENDTAB
  0
TABLE
  2
APPID
  5
9
330
0
100
AcDbSymbolTable
 70
     1
  0
APPID
  5
12
330
9
100
AcDbSymbolTableRecord
100
AcDbRegAppTableRecord
  2
ACAD
 70
     0
  0
ENDTAB
  0
TABLE
  2
DIMSTYLE
  5
A
330
0
100
AcDbSymbolTable
 70
    11
100
AcDbDimStyleTable
  0
DIMSTYLE
105
27
330
A
100
AcDbSymbolTableRecord
100
AcDbDimStyleTableRecord
  2
Standard
 70
     0
178
     0
340
11
  0
DIMSTYLE
105
531
102
{ACAD_REACTORS
330
532
102
}
330
A
100
AcDbSymbolTableRecord
100
AcDbDimStyleTableRecord
  2
ME10_DIM_10
 70
     0
 41
2.5
 42
1.0
 44
2.0
 73
     0
 74
     0
 77
     1
 78
    12
140
3.5
147
0.8
172
     1
173
     1
174
     1
175
     1
176
     7
177
     7
271
     2
178
     7
271
     2
340
526
  0
DIMSTYLE
105
53C
102
{ACAD_REACTORS
330
53D
102
}
330
A
100
AcDbSymbolTableRecord
100
AcDbDimStyleTableRecord
  2
ME10_DIM_11
 70
     0
 41
2.5
 42
1.0
 44
2.0
 73
     0
 74
     0
 77
     1
 78
    12
140
3.5
147
0.8
172
     1
173
     1
174
     1
175
     1
176
     7
177
     7
271
     2
178
     7
271
     2
340
526
  0
DIMSTYLE
105
547
102
{ACAD_REACTORS
330
548
102
}
330
A
100
AcDbSymbolTableRecord
100
AcDbDimStyleTableRecord
  2
ME10_DIM_12
 70
     0
 41
2.5
 42
1.0
 44
2.0
 73
     0
 74
     0
 77
     1
 78
    12
140
3.5
147
0.8
172
     1
173
     1
174
     1
175
     1
176
     7
177
     7
271
     0
178
     7
271
     0
340
526
  0
DIMSTYLE
105
552
102
{ACAD_REACTORS
330
553
102
}
330
A
100
AcDbSymbolTableRecord
100
AcDbDimStyleTableRecord
  2
ME10_DIM_13
 70
     0
 41
2.5
 42
1.0
 44
2.0
 73
     0
 74
     0
 77
     1
 78
    12
140
3.5
147
0.8
172
     1
173
     1
174
     1
175
     1
176
     7
177
     7
271
     2
178
     7
271
     2
340
526
  0
DIMSTYLE
105
55D
102
{ACAD_REACTORS
330
55E
102
}
330
A
100
AcDbSymbolTableRecord
100
AcDbDimStyleTableRecord
  2
ME10_DIM_14
 70
     0
 41
2.5
 42
1.0
 44
2.0
 73
     0
 74
     0
 77
     1
 78
    12
140
3.5
147
0.8
172
     1
173
     1
174
     1
175
     1
176
     7
177
     7
271
     2
178
     7
271
     2
340
526
  0
DIMSTYLE
105
568
102
{ACAD_REACTORS
330
569
102
}
330
A
100
AcDbSymbolTableRecord
100
AcDbDimStyleTableRecord
  2
ME10_DIM_15
 70
     0
 41
2.5
 42
1.0
 44
2.0
 73
     0
 74
     0
 77
     1
 78
    12
140
3.5
147
0.8
172
     1
173
     1
174
     1
175
     1
176
     7
177
     7
271
     2
178
     7
271
     2
340
526
  0
DIMSTYLE
105
573
102
{ACAD_REACTORS
330
574
102
}
330
A
100
AcDbSymbolTableRecord
100
AcDbDimStyleTableRecord
  2
ME10_DIM_16
 70
     0
 41
2.5
 42
1.0
 44
2.0
 73
     0
 74
     0
 77
     1
 78
    12
140
3.5
147
0.8
172
     1
173
     1
174
     1
175
     1
176
     7
177
     7
271
     2
178
     7
271
     2
340
526
  0
DIMSTYLE
105
57E
102
{ACAD_REACTORS
330
57F
102
}
330
A
100
AcDbSymbolTableRecord
100
AcDbDimStyleTableRecord
  2
ME10_DIM_17
 70
     0
 41
2.5
 42
1.0
 44
2.0
 73
     0
 74
     0
 77
     1
 78
    12
140
3.5
147
0.8
172
     1
173
     1
174
     1
175
     1
176
     7
177
     7
271
     2
178
     7
271
     2
340
526
  0
DIMSTYLE
105
589
102
{ACAD_REACTORS
330
58A
102
}
330
A
100
AcDbSymbolTableRecord
100
AcDbDimStyleTableRecord
  2
ME10_DIM_18
 70
     0
 41
2.5
 42
1.0
 44
2.0
 73
     0
 74
     0
 77
     1
 78
    12
140
3.5
147
0.8
172
     1
173
     1
174
     1
175
     1
176
     7
177
     7
271
     2
178
     7
271
     2
340
526
  0
DIMSTYLE
105
594
102
{ACAD_REACTORS
330
595
102
}
330
A
100
AcDbSymbolTableRecord
100
AcDbDimStyleTableRecord
  2
ME10_DIM_19
 70
     0
 41
2.5
 42
1.0
 44
2.0
 73
     0
 74
     0
 77
     1
 78
    12
140
3.5
147
0.8
172
     1
173
     1
174
     1
175
     1
176
     7
177
     7
271
     2
178
     7
271
     2
340
526
  0
ENDTAB
  0
TABLE
  2
BLOCK_RECORD
  5
1
330
0
100
AcDbSymbolTable
 70
    13
  0
BLOCK_RECORD
  5
1F
330
1
100
AcDbSymbolTableRecord
100
AcDbBlockTableRecord
  2
*Model_Space
340
22
  0
BLOCK_RECORD
  5
1B
330
1
100
AcDbSymbolTableRecord
100
AcDbBlockTableRecord
  2
*Paper_Space
340
1E
  0
BLOCK_RECORD
  5
23
330
1
100
AcDbSymbolTableRecord
100
AcDbBlockTableRecord
  2
*Paper_Space0
340
26
  0
BLOCK_RECORD
  5
4F
330
1
100
AcDbSymbolTableRecord
100
AcDbBlockTableRecord
  2
_formato_A4
340
0
102
{BLKREFS
331
53
102
}
  0
BLOCK_RECORD
  5
52
330
1
100
AcDbSymbolTableRecord
100
AcDbBlockTableRecord
  2
A4_oriz
340
0
102
{BLKREFS
331
56
102
}
  0
BLOCK_RECORD
  5
528
330
1
100
AcDbSymbolTableRecord
100
AcDbBlockTableRecord
  2
*D3
340
0
  0
BLOCK_RECORD
  5
533
330
1
100
AcDbSymbolTableRecord
100
AcDbBlockTableRecord
  2
*D4
340
0
  0
BLOCK_RECORD
  5
53E
330
1
100
AcDbSymbolTableRecord
100
AcDbBlockTableRecord
  2
*D5
340
0
  0
BLOCK_RECORD
  5
549
330
1
100
AcDbSymbolTableRecord
100
AcDbBlockTableRecord
  2
*D6
340
0
  0
BLOCK_RECORD
  5
554
330
1
100
AcDbSymbolTableRecord
100
AcDbBlockTableRecord
  2
*D7
340
0
  0
BLOCK_RECORD
  5
55F
330
1
100
AcDbSymbolTableRecord
100
AcDbBlockTableRecord
  2
*D8
340
0
  0
BLOCK_RECORD
  5
56A
330
1
100
AcDbSymbolTableRecord
100
AcDbBlockTableRecord
  2
*D9
340
0
  0
BLOCK_RECORD
  5
575
330
1
100
AcDbSymbolTableRecord
100
AcDbBlockTableRecord
  2
*D10
340
0
  0
BLOCK_RECORD
  5
580
330
1
100
AcDbSymbolTableRecord
100
AcDbBlockTableRecord
  2
*D11
340
0
  0
BLOCK_RECORD
  5
58B
330
1
100
AcDbSymbolTableRecord
100
AcDbBlockTableRecord
  2
*D12
340
0
  0
ENDTAB
  0
ENDSEC
  0
SECTION
  2
BLOCKS
  0
BLOCK
  5
20
330
1F
100
AcDbEntity
  8
0
100
AcDbBlockBegin
  2
*Model_Space
 70
     0
 10
0.0
 20
0.0
 30
0.0
  3
*Model_Space
  1

  0
ENDBLK
  5
21
330
1F
100
AcDbEntity
  8
0
100
AcDbBlockEnd
  0
BLOCK
  5
1C
330
1B
100
AcDbEntity
 67
     1
  8
0
100
AcDbBlockBegin
  2
*Paper_Space
 70
     0
 10
0.0
 20
0.0
 30
0.0
  3
*Paper_Space
  1

  0
ENDBLK
  5
1D
330
1B
100
AcDbEntity
 67
     1
  8
0
100
AcDbBlockEnd
  0
BLOCK
  5
24
330
23
100
AcDbEntity
  8
0
100
AcDbBlockBegin
  2
*Paper_Space0
 70
     0
 10
0.0
 20
0.0
 30
0.0
  3
*Paper_Space0
  1

  0
ENDBLK
  5
25
330
23
100
AcDbEntity
  8
0
100
AcDbBlockEnd
  0
BLOCK
  5
50
330
4F
100
AcDbEntity
  8
0
100
AcDbBlockBegin
  2
_formato_A4
 70
     0
 10
297.0000000000002
 20
0.0
 30
0.0
  3
_formato_A4
  1

  0
LINE
  5
57
330
4F
100
AcDbEntity
  8
1
  6
Continuous
 62
     7
100
AcDbLine
 10
108.0000000000001
 20
4.99999999999988
 30
0.0
 11
108.0000000000001
 21
39.99999999999999
 31
0.0
  0
LINE
  5
58
330
4F
100
AcDbEntity
  8
1
  6
Continuous
 62
     7
100
AcDbLine
 10
108.0000000000001
 20
20.0
 30
0.0
 11
292.0000000000002
 21
20.0
 31
0.0
  0
LINE
  5
59
330
4F
100
AcDbEntity
  8
1
  6
Continuous
 62
     7
100
AcDbLine
 10
4.99999999999989
 20
189.0
 30
0.0
 11
4.99999999999989
 21
5.0
 31
0.0
  0
LINE
  5
5A
330
4F
100
AcDbEntity
  8
1
  6
Continuous
 62
     7
100
AcDbLine
 10
133.0000000000002
 20
34.99999999999999
 30
0.0
 11
133.0000000000002
 21
39.99999999999999
 31
0.0
  0
LINE
  5
5B
330
4F
100
AcDbEntity
  8
1
  6
Continuous
 62
     7
100
AcDbLine
 10
115.0000000000001
 20
34.99999999999999
 30
0.0
 11
115.0000000000001
 21
39.99999999999999
 31
0.0
  0
LINE
  5
5C
330
4F
100
AcDbEntity
  8
1
  6
Continuous
 62
     7
100
AcDbLine
 10
108.0000000000001
 20
39.99999999999999
 30
0.0
 11
292.0000000000002
 21
39.99999999999999
 31
0.0
  0
LINE
  5
5D
330
4F
100
AcDbEntity
  8
1
  6
Continuous
 62
     7
100
AcDbLine
 10
133.0000000000002
 20
29.99999999999999
 30
0.0
 11
133.0000000000002
 21
34.99999999999999
 31
0.0
  0
LINE
  5
5E
330
4F
100
AcDbEntity
  8
1
  6
Continuous
 62
     7
100
AcDbLine
 10
115.0000000000001
 20
29.99999999999999
 30
0.0
 11
115.0000000000001
 21
34.99999999999999
 31
0.0
  0
LINE
  5
5F
330
4F
100
AcDbEntity
  8
1
  6
Continuous
 62
     7
100
AcDbLine
 10
108.0000000000001
 20
34.99999999999999
 30
0.0
 11
292.0000000000002
 21
34.99999999999999
 31
0.0
  0
LINE
  5
60
330
4F
100
AcDbEntity
  8
1
  6
Continuous
 62
     7
100
AcDbLine
 10
133.0000000000002
 20
24.99999999999999
 30
0.0
 11
133.0000000000002
 21
29.99999999999999
 31
0.0
  0
LINE
  5
61
330
4F
100
AcDbEntity
  8
1
  6
Continuous
 62
     7
100
AcDbLine
 10
115.0000000000001
 20
24.99999999999999
 30
0.0
 11
115.0000000000001
 21
29.99999999999999
 31
0.0
  0
LINE
  5
62
330
4F
100
AcDbEntity
  8
1
  6
Continuous
 62
     7
100
AcDbLine
 10
108.0000000000001
 20
29.99999999999999
 30
0.0
 11
292.0000000000002
 21
29.99999999999999
 31
0.0
  0
LINE
  5
63
330
4F
100
AcDbEntity
  8
1
  6
Continuous
 62
     7
100
AcDbLine
 10
133.0000000000002
 20
20.0
 30
0.0
 11
133.0000000000002
 21
24.99999999999999
 31
0.0
  0
LINE
  5
64
330
4F
100
AcDbEntity
  8
1
  6
Continuous
 62
     7
100
AcDbLine
 10
115.0000000000001
 20
20.0
 30
0.0
 11
115.0000000000001
 21
24.99999999999999
 31
0.0
  0
LINE
  5
65
330
4F
100
AcDbEntity
  8
1
  6
Continuous
 62
     7
100
AcDbLine
 10
108.0000000000001
 20
24.99999999999999
 30
0.0
 11
292.0000000000002
 21
24.99999999999999
 31
0.0
  0
LINE
  5
66
102
{ACAD_REACTORS
330
AE
102
}
330
4F
100
AcDbEntity
  8
1
  6
Continuous
 62
     7
100
AcDbLine
 10
282.842874839906
 20
10.55800208038033
 30
0.0
 11
281.5095415065726
 21
9.78877131114973
 31
0.0
  0
LINE
  5
67
102
{ACAD_REACTORS
330
AE
102
}
330
4F
100
AcDbEntity
  8
1
  6
Continuous
 62
     7
100
AcDbLine
 10
281.6763006887426
 20
10.65463653264794
 30
0.0
 11
282.5097265375795
 21
11.13545913774624
 31
0.0
  0
LINE
  5
68
102
{ACAD_REACTORS
330
AE
102
}
330
4F
100
AcDbEntity
  8
1
  6
Continuous
 62
     7
100
AcDbLine
 10
281.6763006887426
 20
12.16666666666663
 30
0.0
 11
281.6763006887426
 21
10.65463653264794
 31
0.0
  0
LINE
  5
69
102
{ACAD_REACTORS
330
AE
102
}
330
4F
100
AcDbEntity
  8
1
  6
Continuous
 62
     7
100
AcDbLine
 10
282.6763006887426
 20
12.16666666666663
 30
0.0
 11
281.6763006887426
 21
12.16666666666663
 31
0.0
  0
LINE
  5
6A
102
{ACAD_REACTORS
330
AE
102
}
330
4F
100
AcDbEntity
  8
1
  6
Continuous
 62
     7
100
AcDbLine
 10
281.6763006887426
 20
12.83333333333326
 30
0.0
 11
282.6763006887426
 21
12.83333333333326
 31
0.0
  0
LINE
  5
6B
102
{ACAD_REACTORS
330
AE
102
}
330
4F
100
AcDbEntity
  8
1
  6
Continuous
 62
     7
100
AcDbLine
 10
281.6763006887426
 20
14.34536346735195
 30
0.0
 11
281.6763006887426
 21
12.83333333333326
 31
0.0
  0
LINE
  5
6C
102
{ACAD_REACTORS
330
AE
102
}
330
4F
100
AcDbEntity
  8
1
  6
Continuous
 62
     7
100
AcDbLine
 10
282.5097265375795
 20
13.86454086225376
 30
0.0
 11
281.6763006887426
 21
14.34536346735195
 31
0.0
  0
LINE
  5
6D
102
{ACAD_REACTORS
330
AE
102
}
330
4F
100
AcDbEntity
  8
1
  6
Continuous
 62
     7
100
AcDbLine
 10
281.5095415065726
 20
15.21122868885027
 30
0.0
 11
282.842874839906
 21
14.44199791961944
 31
0.0
  0
LINE
  5
6E
102
{ACAD_REACTORS
330
AF
102
}
330
4F
100
AcDbEntity
  8
1
  6
Continuous
 62
     7
100
AcDbLine
 10
274.3429673554094
 20
10.84673060906323
 30
0.0
 11
274.3429673554094
 21
14.15326939093666
 31
0.0
  0
LINE
  5
6F
102
{ACAD_REACTORS
330
AF
102
}
330
4F
100
AcDbEntity
  8
1
  6
Continuous
 62
     7
100
AcDbLine
 10
275.009634022076
 20
11.0392519172633
 30
0.0
 11
275.009634022076
 21
10.84673060906323
 31
0.0
  0
LINE
  5
70
102
{ACAD_REACTORS
330
AF
102
}
330
4F
100
AcDbEntity
  8
1
  6
Continuous
 62
     7
100
AcDbLine
 10
275.009634022076
 20
14.15326939093666
 30
0.0
 11
275.009634022076
 21
11.0392519172633
 31
0.0
  0
LINE
  5
71
102
{ACAD_REACTORS
330
B0
102
}
330
4F
100
AcDbEntity
  8
1
  6
Continuous
 62
     7
100
AcDbLine
 10
278.1763932042463
 20
8.4426174649958
 30
0.0
 11
276.0098190530832
 21
9.6925640906669
 31
0.0
  0
LINE
  5
72
102
{ACAD_REACTORS
330
B0
102
}
330
4F
100
AcDbEntity
  8
1
  6
Continuous
 62
     7
100
AcDbLine
 10
276.3429673554094
 20
10.2700211480327
 30
0.0
 11
278.5095415065726
 21
9.0200745223616
 31
0.0
  0
LINE
  5
73
102
{ACAD_REACTORS
330
B0
102
}
330
4F
100
AcDbEntity
  8
1
  6
Continuous
 62
     7
100
AcDbLine
 10
276.3429673554094
 20
14.92250016016737
 30
0.0
 11
276.3429673554094
 21
10.2700211480327
 31
0.0
  0
LINE
  5
74
102
{ACAD_REACTORS
330
B0
102
}
330
4F
100
AcDbEntity
  8
1
  6
Continuous
 62
     7
100
AcDbLine
 10
275.6763006887426
 20
10.27002114803258
 30
0.0
 11
275.6763006887426
 21
14.92250016016737
 31
0.0
  0
LINE
  5
75
102
{ACAD_REACTORS
330
B1
102
}
330
4F
100
AcDbEntity
  8
1
  6
Continuous
 62
     7
100
AcDbLine
 10
279.848533671786
 20
15.86370041827229
 30
0.0
 11
278.6763006887426
 21
13.83333333333326
 31
0.0
  0
LINE
  5
76
102
{ACAD_REACTORS
330
B1
102
}
330
4F
100
AcDbEntity
  8
1
  6
Continuous
 62
     7
100
AcDbLine
 10
280.3429673554094
 20
9.30826907060179
 30
0.0
 11
280.3429673554094
 21
15.73121731203457
 31
0.0
  0
LINE
  5
77
102
{ACAD_REACTORS
330
B1
102
}
330
4F
100
AcDbEntity
  8
1
  6
Continuous
 62
     7
100
AcDbLine
 10
279.6763006887426
 20
12.5
 30
0.0
 11
279.6763006887426
 21
9.30826907060179
 31
0.0
  0
LINE
  5
78
102
{ACAD_REACTORS
330
B1
102
}
330
4F
100
AcDbEntity
  8
1
  6
Continuous
 62
     7
100
AcDbLine
 10
277.6763006887426
 20
10.84758507263291
 30
0.0
 11
277.6763006887426
 21
12.5
 31
0.0
  0
LINE
  5
79
102
{ACAD_REACTORS
330
B1
102
}
330
4F
100
AcDbEntity
  8
1
  6
Continuous
 62
     7
100
AcDbLine
 10
277.009634022076
 20
12.5
 30
0.0
 11
277.009634022076
 21
10.84758507263291
 31
0.0
  0
LINE
  5
7A
102
{ACAD_REACTORS
330
B1
102
}
330
4F
100
AcDbEntity
  8
1
  6
Continuous
 62
     7
100
AcDbLine
 10
277.5040677056995
 20
15.86370041827229
 30
0.0
 11
278.6763006887426
 21
13.83333333333326
 31
0.0
  0
LINE
  5
7B
102
{ACAD_REACTORS
330
B1
102
}
330
4F
100
AcDbEntity
  8
1
  6
Continuous
 62
     7
100
AcDbLine
 10
277.009634022076
 20
12.5
 30
0.0
 11
277.009634022076
 21
15.73121731203457
 31
0.0
  0
LINE
  5
7C
330
4F
100
AcDbEntity
  8
1
  6
Continuous
 62
     7
100
AcDbLine
 10
278.6763006887426
 20
7.5
 30
0.0
 11
270.2598654136012
 21
12.35563573565855
 31
0.0
  0
LINE
  5
7D
330
4F
100
AcDbEntity
  8
1
  6
Continuous
 62
     7
100
AcDbLine
 10
287.0927359638842
 20
12.35563573565855
 30
0.0
 11
278.6763006887426
 21
7.5
 31
0.0
  0
LINE
  5
7E
330
4F
100
AcDbEntity
  8
1
  6
Continuous
 62
     7
100
AcDbLine
 10
278.6763006887426
 20
17.5
 30
0.0
 11
287.0927359638842
 21
12.64436426434133
 31
0.0
  0
LINE
  5
7F
330
4F
100
AcDbEntity
  8
1
  6
Continuous
 62
     7
100
AcDbLine
 10
270.2598654136012
 20
12.64436426434133
 30
0.0
 11
278.6763006887426
 21
17.5
 31
0.0
  0
LINE
  5
80
102
{ACAD_REACTORS
330
B1
102
}
330
4F
100
AcDbEntity
  8
1
  6
Continuous
 62
     7
100
AcDbLine
 10
277.6763006887426
 20
14.23205080756884
 30
0.0
 11
277.6763006887426
 21
12.5
 31
0.0
  0
LINE
  5
81
102
{ACAD_REACTORS
330
B1
102
}
330
4F
100
AcDbEntity
  8
1
  6
Continuous
 62
     7
100
AcDbLine
 10
278.5319631214451
 20
12.75
 30
0.0
 11
277.6763006887426
 21
14.23205080756884
 31
0.0
  0
LINE
  5
82
102
{ACAD_REACTORS
330
B1
102
}
330
4F
100
AcDbEntity
  8
1
  6
Continuous
 62
     7
100
AcDbLine
 10
279.6763006887426
 20
14.23205080756884
 30
0.0
 11
278.8206382560401
 21
12.75
 31
0.0
  0
LINE
  5
83
102
{ACAD_REACTORS
330
B1
102
}
330
4F
100
AcDbEntity
  8
1
  6
Continuous
 62
     7
100
AcDbLine
 10
279.6763006887426
 20
12.5
 30
0.0
 11
279.6763006887426
 21
14.23205080756884
 31
0.0
  0
LINE
  5
84
102
{ACAD_REACTORS
330
AE
102
}
330
4F
100
AcDbEntity
  8
1
  6
Continuous
 62
     7
100
AcDbLine
 10
281.0096340220761
 20
10.07749983983263
 30
0.0
 11
281.0096340220761
 21
14.92250016016737
 31
0.0
  0
LINE
  5
85
330
4F
100
AcDbEntity
  8
1
  6
Continuous
 62
     7
100
AcDbLine
 10
292.0000000000002
 20
189.0
 30
0.0
 11
4.99999999999989
 21
189.0
 31
0.0
  0
LINE
  5
86
330
4F
100
AcDbEntity
  8
1
  6
Continuous
 62
     7
100
AcDbLine
 10
292.0000000000002
 20
5.0
 30
0.0
 11
292.0000000000002
 21
189.0
 31
0.0
  0
LINE
  5
87
330
4F
100
AcDbEntity
  8
1
  6
Continuous
 62
     7
100
AcDbLine
 10
4.99999999999989
 20
5.0
 30
0.0
 11
292.0000000000002
 21
5.0
 31
0.0
  0
LINE
  5
88
330
4F
100
AcDbEntity
  8
1
  6
Continuous
 62
     7
100
AcDbLine
 10
297.0000000000002
 20
0.0
 30
0.0
 11
297.0000000000002
 21
210.0000000000001
 31
0.0
  0
LINE
  5
89
330
4F
100
AcDbEntity
  8
1
  6
Continuous
 62
     7
100
AcDbLine
 10
297.0000000000002
 20
210.0000000000001
 30
0.0
 11
0.0
 21
210.0000000000001
 31
0.0
  0
LINE
  5
8A
330
4F
100
AcDbEntity
  8
1
  6
Continuous
 62
     7
100
AcDbLine
 10
0.0
 20
210.0000000000001
 30
0.0
 11
0.0
 21
0.0
 31
0.0
  0
LINE
  5
8B
330
4F
100
AcDbEntity
  8
1
  6
Continuous
 62
     7
100
AcDbLine
 10
0.0
 20
0.0
 30
0.0
 11
297.0000000000002
 21
0.0
 31
0.0
  0
LINE
  5
8C
330
4F
100
AcDbEntity
  8
1
  6
Continuous
 62
     7
100
AcDbLine
 10
148.4999999999997
 20
210.0000000000001
 30
0.0
 11
148.4999999999997
 21
195.0000000000001
 31
0.0
  0
LINE
  5
8D
330
4F
100
AcDbEntity
  8
1
  6
Continuous
 62
     7
100
AcDbLine
 10
138.0000000000001
 20
20.0
 30
0.0
 11
138.0000000000001
 21
5.0
 31
0.0
  0
LINE
  5
8E
330
4F
100
AcDbEntity
  8
1
  6
Continuous
 62
     7
100
AcDbLine
 10
265.3526013774854
 20
20.0
 30
0.0
 11
265.3526013774854
 21
5.0
 31
0.0
  0
LINE
  5
8F
330
4F
100
AcDbEntity
  8
1
  6
Continuous
 62
     7
100
AcDbLine
 10
248.0000000000002
 20
20.0
 30
0.0
 11
248.0000000000002
 21
5.0
 31
0.0
  0
LINE
  5
90
330
4F
100
AcDbEntity
  8
1
  6
Continuous
 62
     7
100
AcDbLine
 10
108.0000000000001
 20
14.99999999999989
 30
0.0
 11
138.0000000000001
 21
14.99999999999989
 31
0.0
  0
LINE
  5
91
330
4F
100
AcDbEntity
  8
1
  6
Continuous
 62
     7
100
AcDbLine
 10
108.0000000000001
 20
9.99999999999986
 30
0.0
 11
138.0000000000001
 21
9.99999999999986
 31
0.0
  0
ARC
  5
92
102
{ACAD_REACTORS
330
AE
102
}
330
4F
100
AcDbEntity
  8
1
  6
Continuous
 62
     7
100
AcDbCircle
 10
282.6763006887426
 20
10.84673060906323
 30
0.0
 40
0.3333333333334876
100
AcDbArc
 50
299.9816393688841
 51
119.9816393688153
  0
ARC
  5
93
102
{ACAD_REACTORS
330
AE
102
}
330
4F
100
AcDbEntity
  8
1
  6
Continuous
 62
     7
100
AcDbCircle
 10
282.6763006887426
 20
12.5
 30
0.0
 40
0.3333333333333695
100
AcDbArc
 50
270.0
 51
90.0
  0
ARC
  5
94
102
{ACAD_REACTORS
330
AE
102
}
330
4F
100
AcDbEntity
  8
1
  6
Continuous
 62
     7
100
AcDbCircle
 10
282.6763006887426
 20
14.15326939093666
 30
0.0
 40
0.3333333333332903
100
AcDbArc
 50
240.0183606311752
 51
60.01836063110559
  0
ARC
  5
95
102
{ACAD_REACTORS
330
AF
102
}
330
4F
100
AcDbEntity
  8
1
  6
Continuous
 62
     7
100
AcDbCircle
 10
274.6763006887426
 20
10.84673060906323
 30
0.0
 40
0.3333333333331439
100
AcDbArc
 50
180.0
 51
0.0
  0
ARC
  5
96
102
{ACAD_REACTORS
330
AF
102
}
330
4F
100
AcDbEntity
  8
1
  6
Continuous
 62
     7
100
AcDbCircle
 10
274.6763006887426
 20
14.15326939093666
 30
0.0
 40
0.3333333333334281
100
AcDbArc
 50
0.0
 51
180.0
  0
ARC
  5
97
102
{ACAD_REACTORS
330
B0
102
}
330
4F
100
AcDbEntity
  8
1
  6
Continuous
 62
     7
100
AcDbCircle
 10
278.3429673554094
 20
8.7313459936787
 30
0.0
 40
0.3333333333333141
100
AcDbArc
 50
240.0183606311663
 51
60.01836063115844
  0
ARC
  5
98
102
{ACAD_REACTORS
330
B0
102
}
330
4F
100
AcDbEntity
  8
1
  6
Continuous
 62
     7
100
AcDbCircle
 10
276.009634022076
 20
14.92250016016737
 30
0.0
 40
0.3333333333334281
100
AcDbArc
 50
0.0
 51
180.0
  0
ARC
  5
99
102
{ACAD_REACTORS
330
B1
102
}
330
4F
100
AcDbEntity
  8
1
  6
Continuous
 62
     7
100
AcDbCircle
 10
280.0780011429342
 20
15.73121731203457
 30
0.0
 40
0.2649662124752012
100
AcDbArc
 50
0.0
 51
149.9999999999931
  0
ARC
  5
9A
102
{ACAD_REACTORS
330
B1
102
}
330
4F
100
AcDbEntity
  8
1
  6
Continuous
 62
     7
100
AcDbCircle
 10
280.0096340220761
 20
9.30826907060179
 30
0.0
 40
0.3333333333335418
100
AcDbArc
 50
180.0
 51
0.0
  0
ARC
  5
9B
102
{ACAD_REACTORS
330
B1
102
}
330
4F
100
AcDbEntity
  8
1
  6
Continuous
 62
     7
100
AcDbCircle
 10
277.3429673554094
 20
10.84758507263291
 30
0.0
 40
0.3333333333334281
100
AcDbArc
 50
180.0
 51
0.0
  0
ARC
  5
9C
102
{ACAD_REACTORS
330
B1
102
}
330
4F
100
AcDbEntity
  8
1
  6
Continuous
 62
     7
100
AcDbCircle
 10
277.2746002345513
 20
15.73121731203457
 30
0.0
 40
0.2649662124753838
100
AcDbArc
 50
30.00000000000692
 51
180.0
  0
ARC
  5
9D
102
{ACAD_REACTORS
330
AE
102
}
330
4F
100
AcDbEntity
  8
1
  6
Continuous
 62
     7
100
AcDbCircle
 10
281.3429673554094
 20
10.07749983983263
 30
0.0
 40
0.3333333333333144
100
AcDbArc
 50
180.0
 51
299.9816393688414
  0
ARC
  5
9E
102
{ACAD_REACTORS
330
AE
102
}
330
4F
100
AcDbEntity
  8
1
  6
Continuous
 62
     7
100
AcDbCircle
 10
281.3429673554094
 20
14.92250016016737
 30
0.0
 40
0.3333333333333456
100
AcDbArc
 50
60.01836063115814
 51
180.0
  0
ARC
  5
9F
330
4F
100
AcDbEntity
  8
1
  6
Continuous
 62
     7
100
AcDbCircle
 10
287.0094488883025
 20
12.5
 30
0.0
 40
0.1666666666667438
100
AcDbArc
 50
299.9816393688841
 51
60.01836063109538
  0
ARC
  5
A0
330
4F
100
AcDbEntity
  8
1
  6
Continuous
 62
     7
100
AcDbCircle
 10
270.3431524891827
 20
12.5
 30
0.0
 40
0.1666666666665555
100
AcDbArc
 50
119.9816393688538
 51
240.0183606311666
  0
ARC
  5
A1
102
{ACAD_REACTORS
330
B0
102
}
330
4F
100
AcDbEntity
  8
1
  6
Continuous
 62
     7
100
AcDbCircle
 10
276.3429673554094
 20
10.2700211480327
 30
0.0
 40
0.6666666666668561
100
AcDbArc
 50
180.0000000000104
 51
240.0183606311666
  0
ARC
  5
A2
102
{ACAD_REACTORS
330
B1
102
}
330
4F
100
AcDbEntity
  8
1
  6
Continuous
 62
     7
100
AcDbCircle
 10
278.6763006887426
 20
12.83333333333326
 30
0.0
 40
0.166666666666709
100
AcDbArc
 50
209.9999999999622
 51
330.0000000000475
  0
MTEXT
  5
A4
330
4F
100
AcDbEntity
  8
1
 62
     7
100
AcDbMText
 10
256.6763006887426
 20
10.06063942075605
 30
0.0
 40
4.5
 41
0.0
 71
     5
 72
     1
  1
1:1
  7
CONVERTER_11
 73
     1
 44
1.32052821128451
  0
MTEXT
  5
A5
330
4F
100
AcDbEntity
  8
1
 62
     7
100
AcDbMText
 10
256.6763006887426
 20
16.26063942075598
 30
0.0
 40
3.0
 41
0.0
 71
     5
 72
     1
  1
Scale
  7
CONVERTER_11
 73
     1
 44
1.32052821128451
  0
MTEXT
  5
A6
330
4F
100
AcDbEntity
  8
1
 62
     7
100
AcDbMText
 10
144.2763006887428
 20
12.5
 30
0.0
 40
4.5
 41
0.0
 71
     4
 72
     1
  1
JCVP 16 L\PSurface mounting housing, 1 lever, PG21 - JEI
  7
CONVERTER_11
 73
     1
 44
0.90036014405762
  0
MTEXT
  5
A7
330
4F
100
AcDbEntity
  8
1
 62
     7
100
AcDbMText
 10
151.4999999999997
 20
194.0000000000001
 30
0.0
 40
4.0
 41
0.0
 71
     5
 72
     1
  1
Diritti riservati      All rights reserved
  7
CONVERTER_11
 73
     1
 44
1.32052821128451
  0
MTEXT
  5
A9
330
4F
100
AcDbEntity
  8
1
 62
     7
100
AcDbMText
 10
123.0000000000001
 20
17.49999999999994
 30
0.0
 40
2.5
 41
0.0
 71
     5
 72
     1
  1
dimensions in mm
  7
CONVERTER_12
 73
     1
 44
0.60024009603842
  0
MTEXT
  5
AA
330
4F
100
AcDbEntity
  8
1
 62
     7
100
AcDbMText
 10
109.0000000000001
 20
12.49999999999987
 30
0.0
 40
3.0
 41
0.0
 71
     4
 72
     1
  1
Date
  7
CONVERTER_11
 73
     1
 44
1.32052821128451
  0
MTEXT
  5
AB
330
4F
100
AcDbEntity
  8
1
 62
     7
100
AcDbMText
 10
119.6000000000001
 20
12.49999999999987
 30
0.0
 40
3.0
 41
0.0
 71
     4
 72
     1
  1
19/06/14
  7
CONVERTER_11
 73
     1
 44
1.32052821128451
  0
MTEXT
  5
AC
330
4F
100
AcDbEntity
  8
1
 62
     7
100
AcDbMText
 10
109.0000000000001
 20
7.49999999999987
 30
0.0
 40
3.0
 41
0.0
 71
     4
 72
     1
  1
Sign.
  7
CONVERTER_11
 73
     1
 44
1.32052821128451
  0
MTEXT
  5
AD
330
4F
100
AcDbEntity
  8
1
 62
     7
100
AcDbMText
 10
119.6000000000001
 20
7.49999999999987
 30
0.0
 40
3.0
 41
0.0
 71
     4
 72
     1
  1
Radice
  7
CONVERTER_11
 73
     1
 44
1.32052821128451
  0
HATCH
  5
AE
330
4F
100
AcDbEntity
  8
1
  6
Continuous
 62
     7
100
AcDbHatch
 10
0.0
 20
0.0
 30
0.0
210
0.0
220
0.0
230
1.0
  2
SOLID
 70
     1
 71
     1
 91
        1
 92
        1
 93
       14
 72
     2
 10
281.3429673554094
 20
14.92250016016737
 40
0.3333333333333456
 50
60.01836063115814
 51
180.0
 73
     1
 72
     1
 10
281.0096340220761
 20
14.92250016016737
 11
281.0096340220761
 21
10.07749983983263
 72
     2
 10
281.3429673554094
 20
10.07749983983263
 40
0.3333333333333144
 50
180.0
 51
299.9816393688414
 73
     1
 72
     1
 10
281.5095415065726
 20
9.788771311149725
 11
282.842874839906
 21
10.55800208038033
 72
     2
 10
282.6763006887426
 20
10.84673060906323
 40
0.3333333333334876
 50
299.9816393688841
 51
479.9816393688154
 73
     1
 72
     1
 10
282.5097265375795
 20
11.13545913774624
 11
281.6763006887426
 21
10.65463653264794
 72
     1
 10
281.6763006887426
 20
10.65463653264794
 11
281.6763006887426
 21
12.16666666666663
 72
     1
 10
281.6763006887426
 20
12.16666666666663
 11
282.6763006887426
 21
12.16666666666663
 72
     2
 10
282.6763006887426
 20
12.5
 40
0.3333333333333695
 50
270.0
 51
450.0
 73
     1
 72
     1
 10
282.6763006887426
 20
12.83333333333326
 11
281.6763006887426
 21
12.83333333333326
 72
     1
 10
281.6763006887426
 20
12.83333333333326
 11
281.6763006887426
 21
14.34536346735195
 72
     1
 10
281.6763006887426
 20
14.34536346735195
 11
282.5097265375795
 21
13.86454086225376
 72
     2
 10
282.6763006887426
 20
14.15326939093666
 40
0.3333333333332903
 50
240.0183606311752
 51
420.0183606311056
 73
     1
 72
     1
 10
282.842874839906
 20
14.44199791961944
 11
281.5095415065726
 21
15.21122868885027
 97
       14
330
94
330
6C
330
6B
330
6A
330
93
330
69
330
68
330
67
330
92
330
66
330
9D
330
84
330
9E
330
6D
 75
     0
 76
     1
 98
        1
 10
0.0
 20
0.0
  0
HATCH
  5
AF
330
4F
100
AcDbEntity
  8
1
  6
Continuous
 62
     7
100
AcDbHatch
 10
0.0
 20
0.0
 30
0.0
210
0.0
220
0.0
230
1.0
  2
SOLID
 70
     1
 71
     1
 91
        1
 92
        1
 93
        5
 72
     2
 10
274.6763006887426
 20
14.15326939093666
 40
0.3333333333334281
 50
0.0
 51
180.0
 73
     1
 72
     1
 10
274.3429673554094
 20
14.15326939093666
 11
274.3429673554094
 21
10.84673060906323
 72
     2
 10
274.6763006887426
 20
10.84673060906323
 40
0.3333333333331439
 50
180.0
 51
360.0
 73
     1
 72
     1
 10
275.009634022076
 20
10.84673060906323
 11
275.009634022076
 21
11.0392519172633
 72
     1
 10
275.009634022076
 20
11.0392519172633
 11
275.009634022076
 21
14.15326939093666
 97
        5
330
96
330
6E
330
95
330
6F
330
70
 75
     0
 76
     1
 98
        1
 10
0.0
 20
0.0
  0
HATCH
  5
B0
330
4F
100
AcDbEntity
  8
1
  6
Continuous
 62
     7
100
AcDbHatch
 10
0.0
 20
0.0
 30
0.0
210
0.0
220
0.0
230
1.0
  2
SOLID
 70
     1
 71
     1
 91
        1
 92
        1
 93
        7
 72
     2
 10
276.009634022076
 20
14.92250016016737
 40
0.3333333333334281
 50
0.0
 51
180.0
 73
     1
 72
     1
 10
275.6763006887426
 20
14.92250016016737
 11
275.6763006887426
 21
10.27002114803258
 72
     2
 10
276.3429673554094
 20
10.2700211480327
 40
0.6666666666668561
 50
180.0000000000104
 51
240.0183606311666
 73
     1
 72
     1
 10
276.0098190530832
 20
9.6925640906669
 11
278.1763932042463
 21
8.4426174649958
 72
     2
 10
278.3429673554094
 20
8.731345993678696
 40
0.3333333333333141
 50
240.0183606311663
 51
420.0183606311584
 73
     1
 72
     1
 10
278.5095415065726
 20
9.020074522361599
 11
276.3429673554094
 21
10.2700211480327
 72
     1
 10
276.3429673554094
 20
10.2700211480327
 11
276.3429673554094
 21
14.92250016016737
 97
        7
330
98
330
74
330
A1
330
71
330
97
330
72
330
73
 75
     0
 76
     1
 98
        1
 10
0.0
 20
0.0
  0
HATCH
  5
B1
330
4F
100
AcDbEntity
  8
1
  6
Continuous
 62
     7
100
AcDbHatch
 10
0.0
 20
0.0
 30
0.0
210
0.0
220
0.0
230
1.0
  2
SOLID
 70
     1
 71
     1
 91
        1
 92
        1
 93
       16
 72
     2
 10
280.0780011429342
 20
15.73121731203457
 40
0.2649662124752012
 50
210.0000000000069
 51
360.0
 73
     0
 72
     1
 10
280.3429673554094
 20
15.73121731203457
 11
280.3429673554094
 21
9.30826907060179
 72
     2
 10
280.0096340220761
 20
9.30826907060179
 40
0.3333333333335418
 50
0.0
 51
180.0
 73
     0
 72
     1
 10
279.6763006887426
 20
9.30826907060179
 11
279.6763006887426
 21
12.5
 72
     1
 10
279.6763006887426
 20
12.5
 11
279.6763006887426
 21
14.23205080756884
 72
     1
 10
279.6763006887426
 20
14.23205080756884
 11
278.8206382560401
 21
12.75
 72
     2
 10
278.6763006887426
 20
12.83333333333326
 40
0.166666666666709
 50
29.99999999995244
 51
150.0000000000378
 73
     0
 72
     1
 10
278.5319631214451
 20
12.75
 11
277.6763006887426
 21
14.23205080756884
 72
     1
 10
277.6763006887426
 20
14.23205080756884
 11
277.6763006887426
 21
12.5
 72
     1
 10
277.6763006887426
 20
12.5
 11
277.6763006887426
 21
10.84758507263291
 72
     2
 10
277.3429673554094
 20
10.84758507263291
 40
0.3333333333334281
 50
0.0
 51
180.0
 73
     0
 72
     1
 10
277.009634022076
 20
10.84758507263291
 11
277.009634022076
 21
12.5
 72
     1
 10
277.009634022076
 20
12.5
 11
277.009634022076
 21
15.73121731203457
 72
     2
 10
277.2746002345513
 20
15.73121731203457
 40
0.2649662124753838
 50
180.0
 51
329.9999999999931
 73
     0
 72
     1
 10
277.5040677056995
 20
15.86370041827229
 11
278.6763006887426
 21
13.83333333333326
 72
     1
 10
278.6763006887426
 20
13.83333333333326
 11
279.848533671786
 21
15.86370041827229
 97
       16
330
7A
330
9C
330
7B
330
79
330
9B
330
78
330
80
330
81
330
A2
330
82
330
83
330
77
330
9A
330
76
330
99
330
75
 75
     0
 76
     1
 98
        1
 10
0.0
 20
0.0
  0
ENDBLK
  5
51
330
4F
100
AcDbEntity
  8
0
100
AcDbBlockEnd
  0
BLOCK
  5
54
330
52
100
AcDbEntity
  8
0
100
AcDbBlockBegin
  2
A4_oriz
 70
     0
 10
297.0000000000002
 20
0.0
 30
0.0
  3
A4_oriz
  1

  0
INSERT
  5
53
330
52
100
AcDbEntity
  8
1
100
AcDbBlockReference
  2
_formato_A4
 10
297.0000000000002
 20
0.0
 30
0.0
  0
ENDBLK
  5
55
330
52
100
AcDbEntity
  8
0
100
AcDbBlockEnd
  0
BLOCK
  5
52F
330
528
100
AcDbEntity
  8
0
100
AcDbBlockBegin
  2
*D3
 70
     1
 10
0.0
 20
0.0
 30
0.0
  3
*D3
  1

  0
LINE
  5
529
330
528
100
AcDbEntity
  8
Bemaßungen_TC_020513_DIN_
  6
Continuous
 62
     7
100
AcDbLine
 10
167.7995870376791
 20
83.0589451882103
 30
0.0
 11
167.7995870376791
 21
112.1629451882103
 31
0.0
  0
LINE
  5
52A
330
528
100
AcDbEntity
  8
Bemaßungen_TC_020513_DIN_
  6
Continuous
 62
     7
100
AcDbLine
 10
152.799587037679
 20
112.1629451882103
 30
0.0
 11
169.7995870376791
 21
112.1629451882103
 31
0.0
  0
LINE
  5
52B
330
528
100
AcDbEntity
  8
Bemaßungen_TC_020513_DIN_
  6
Continuous
 62
     7
100
AcDbLine
 10
152.799587037679
 20
83.0589451882103
 30
0.0
 11
169.7995870376791
 21
83.0589451882103
 31
0.0
  0
SOLID
  5
52C
330
528
100
AcDbEntity
  8
Bemaßungen_TC_020513_DIN_
 62
     7
100
AcDbTrace
 10
168.1287182816476
 20
109.6629451882103
 30
0.0
 11
167.4704557937106
 21
109.6629451882103
 31
0.0
 12
167.7995870376791
 22
112.1629451882103
 32
0.0
 13
167.7995870376791
 23
112.1629451882103
 33
0.0
  0
SOLID
  5
52D
330
528
100
AcDbEntity
  8
Bemaßungen_TC_020513_DIN_
 62
     7
100
AcDbTrace
 10
167.4704557937106
 20
85.5589451882103
 30
0.0
 11
168.1287182816476
 21
85.5589451882103
 31
0.0
 12
167.7995870376791
 22
83.0589451882103
 32
0.0
 13
167.7995870376791
 23
83.0589451882103
 33
0.0
  0
MTEXT
  5
52E
330
528
100
AcDbEntity
  8
Bemaßungen_TC_020513_DIN_
 62
     7
100
AcDbMText
 10
164.7906623568539
 20
93.84346337829673
 30
0.0
 40
3.5
 41
0.0
 71
     7
 72
     1
  1
PG21
  7
CONVERTER_13
 11
0.0
 21
1.0
 31
0.0
 73
     1
 44
0.45454545454545
  0
ENDBLK
  5
530
330
528
100
AcDbEntity
  8
0
100
AcDbBlockEnd
  0
BLOCK
  5
53A
330
533
100
AcDbEntity
  8
0
100
AcDbBlockBegin
  2
*D4
 70
     1
 10
0.0
 20
0.0
 30
0.0
  3
*D4
  1

  0
LINE
  5
534
330
533
100
AcDbEntity
  8
Bemaßungen_TC_020513_DIN_
  6
Continuous
 62
     7
100
AcDbLine
 10
24.79958703767924
 20
159.2209451882103
 30
0.0
 11
24.79958703767924
 21
78.22094518821021
 31
0.0
  0
LINE
  5
535
330
533
100
AcDbEntity
  8
Bemaßungen_TC_020513_DIN_
  6
Continuous
 62
     7
100
AcDbLine
 10
33.79958703767917
 20
78.22094518821021
 30
0.0
 11
22.79958703767924
 21
78.22094518821021
 31
0.0
  0
LINE
  5
536
330
533
100
AcDbEntity
  8
Bemaßungen_TC_020513_DIN_
  6
Continuous
 62
     7
100
AcDbLine
 10
42.79958703767917
 20
159.2209451882103
 30
0.0
 11
22.79958703767924
 21
159.2209451882103
 31
0.0
  0
SOLID
  5
537
330
533
100
AcDbEntity
  8
Bemaßungen_TC_020513_DIN_
 62
     7
100
AcDbTrace
 10
24.47045579371075
 20
80.72094518821021
 30
0.0
 11
25.12871828164773
 21
80.72094518821021
 31
0.0
 12
24.79958703767924
 22
78.22094518821021
 32
0.0
 13
24.79958703767924
 23
78.22094518821021
 33
0.0
  0
SOLID
  5
538
330
533
100
AcDbEntity
  8
Bemaßungen_TC_020513_DIN_
 62
     7
100
AcDbTrace
 10
25.12871828164773
 20
156.7209451882103
 30
0.0
 11
24.47045579371075
 21
156.7209451882103
 31
0.0
 12
24.79958703767924
 22
159.2209451882103
 32
0.0
 13
24.79958703767924
 23
159.2209451882103
 33
0.0
  0
MTEXT
  5
539
330
533
100
AcDbEntity
  8
Bemaßungen_TC_020513_DIN_
 62
     7
100
AcDbMText
 10
21.80990448183632
 20
118.1478938012161
 30
0.0
 40
3.5
 41
0.0
 71
     7
 72
     1
  1
81
  7
CONVERTER_13
 11
0.0
 21
1.0
 31
0.0
 73
     1
 44
0.45454545454545
  0
ENDBLK
  5
53B
330
533
100
AcDbEntity
  8
0
100
AcDbBlockEnd
  0
BLOCK
  5
545
330
53E
100
AcDbEntity
  8
0
100
AcDbBlockBegin
  2
*D5
 70
     1
 10
0.0
 20
0.0
 30
0.0
  3
*D5
  1

  0
LINE
  5
53F
330
53E
100
AcDbEntity
  8
Bemaßungen_TC_020513_DIN_
  6
Continuous
 62
     7
100
AcDbLine
 10
205.6495663215613
 20
169.2209451882108
 30
0.0
 11
280.0835162932841
 21
169.2209451882108
 31
0.0
  0
LINE
  5
540
330
53E
100
AcDbEntity
  8
Bemaßungen_TC_020513_DIN_
  6
Continuous
 62
     7
100
AcDbLine
 10
280.0835162932841
 20
124.2209451882108
 30
0.0
 11
280.0835162932841
 21
171.2209451882108
 31
0.0
  0
LINE
  5
541
330
53E
100
AcDbEntity
  8
Bemaßungen_TC_020513_DIN_
  6
Continuous
 62
     7
100
AcDbLine
 10
205.6495663215613
 20
79.22094518821079
 30
0.0
 11
205.6495663215613
 21
171.2209451882108
 31
0.0
  0
SOLID
  5
542
330
53E
100
AcDbEntity
  8
Bemaßungen_TC_020513_DIN_
 62
     7
100
AcDbTrace
 10
277.5835162932841
 20
168.8918139442423
 30
0.0
 11
277.5835162932841
 21
169.5500764321793
 31
0.0
 12
280.0835162932841
 22
169.2209451882108
 32
0.0
 13
280.0835162932841
 23
169.2209451882108
 33
0.0
  0
SOLID
  5
543
330
53E
100
AcDbEntity
  8
Bemaßungen_TC_020513_DIN_
 62
     7
100
AcDbTrace
 10
208.1495663215613
 20
169.5500764321793
 30
0.0
 11
208.1495663215613
 21
168.8918139442423
 31
0.0
 12
205.6495663215613
 22
169.2209451882108
 32
0.0
 13
205.6495663215613
 23
169.2209451882108
 33
0.0
  0
MTEXT
  5
544
330
53E
100
AcDbEntity
  8
Bemaßungen_TC_020513_DIN_
 62
     7
100
AcDbMText
 10
241.7928737312517
 20
172.1279103623401
 30
0.0
 40
3.5
 41
0.0
 71
     7
 72
     1
  1
74
  7
CONVERTER_13
 11
0.9999999999970619
 21
2.424068405545306E-6
 31
0.0
 73
     1
 44
0.45454545454545
  0
ENDBLK
  5
546
330
53E
100
AcDbEntity
  8
0
100
AcDbBlockEnd
  0
BLOCK
  5
550
330
549
100
AcDbEntity
  8
0
100
AcDbBlockBegin
  2
*D6
 70
     1
 10
0.0
 20
0.0
 30
0.0
  3
*D6
  1

  0
LINE
  5
54A
330
549
100
AcDbEntity
  8
Bemaßungen_TC_020513_DIN_
  6
Continuous
 62
     7
100
AcDbLine
 10
146.7995870376793
 20
169.2209451882099
 30
0.0
 11
39.79958703767928
 21
169.2209451882099
 31
0.0
  0
LINE
  5
54B
330
549
100
AcDbEntity
  8
Bemaßungen_TC_020513_DIN_
  6
Continuous
 62
     7
100
AcDbLine
 10
39.79958703767928
 20
135.2209451882099
 30
0.0
 11
39.79958703767928
 21
171.2209451882099
 31
0.0
  0
LINE
  5
54C
330
549
100
AcDbEntity
  8
Bemaßungen_TC_020513_DIN_
  6
Continuous
 62
     7
100
AcDbLine
 10
146.7995870376793
 20
135.2209451882099
 30
0.0
 11
146.7995870376793
 21
171.2209451882099
 31
0.0
  0
SOLID
  5
54D
330
549
100
AcDbEntity
  8
Bemaßungen_TC_020513_DIN_
 62
     7
100
AcDbTrace
 10
42.29958703767928
 20
169.5500764321784
 30
0.0
 11
42.29958703767928
 21
168.8918139442414
 31
0.0
 12
39.79958703767928
 22
169.2209451882099
 32
0.0
 13
39.79958703767928
 23
169.2209451882099
 33
0.0
  0
SOLID
  5
54E
330
549
100
AcDbEntity
  8
Bemaßungen_TC_020513_DIN_
 62
     7
100
AcDbTrace
 10
144.2995870376793
 20
168.8918139442414
 30
0.0
 11
144.2995870376793
 21
169.5500764321784
 31
0.0
 12
146.7995870376793
 22
169.2209451882099
 32
0.0
 13
146.7995870376793
 23
169.2209451882099
 33
0.0
  0
MTEXT
  5
54F
330
549
100
AcDbEntity
  8
Bemaßungen_TC_020513_DIN_
 62
     7
100
AcDbMText
 10
91.68618094400031
 20
172.2106277440528
 30
0.0
 40
3.5
 41
0.0
 71
     7
 72
     1
  1
107
  7
CONVERTER_13
 11
0.9999999999970619
 21
2.424068405545306E-6
 31
0.0
 73
     1
 44
0.45454545454545
  0
ENDBLK
  5
551
330
549
100
AcDbEntity
  8
0
100
AcDbBlockEnd
  0
BLOCK
  5
55B
330
554
100
AcDbEntity
  8
0
100
AcDbBlockBegin
  2
*D7
 70
     1
 10
0.0
 20
0.0
 30
0.0
  3
*D7
  1

  0
LINE
  5
555
330
554
100
AcDbEntity
  8
Bemaßungen_TC_020513_DIN_
  6
Continuous
 62
     7
100
AcDbLine
 10
183.6495663215613
 20
141.2209451882104
 30
0.0
 11
183.6495663215613
 21
78.2209451882105
 31
0.0
  0
LINE
  5
556
330
554
100
AcDbEntity
  8
Bemaßungen_TC_020513_DIN_
  6
Continuous
 62
     7
100
AcDbLine
 10
204.6495663215613
 20
78.2209451882105
 30
0.0
 11
181.6495663215613
 21
78.2209451882105
 31
0.0
  0
LINE
  5
557
330
554
100
AcDbEntity
  8
Bemaßungen_TC_020513_DIN_
  6
Continuous
 62
     7
100
AcDbLine
 10
213.9995663215657
 20
141.2209451882104
 30
0.0
 11
181.6495663215613
 21
141.2209451882104
 31
0.0
  0
SOLID
  5
558
330
554
100
AcDbEntity
  8
Bemaßungen_TC_020513_DIN_
 62
     7
100
AcDbTrace
 10
183.3204350775928
 20
80.7209451882105
 30
0.0
 11
183.9786975655298
 21
80.7209451882105
 31
0.0
 12
183.6495663215613
 22
78.2209451882105
 32
0.0
 13
183.6495663215613
 23
78.2209451882105
 33
0.0
  0
SOLID
  5
559
330
554
100
AcDbEntity
  8
Bemaßungen_TC_020513_DIN_
 62
     7
100
AcDbTrace
 10
183.9786975655298
 20
138.7209451882104
 30
0.0
 11
183.3204350775928
 21
138.7209451882104
 31
0.0
 12
183.6495663215613
 22
141.2209451882104
 32
0.0
 13
183.6495663215613
 23
141.2209451882104
 33
0.0
  0
MTEXT
  5
55A
330
554
100
AcDbEntity
  8
Bemaßungen_TC_020513_DIN_
 62
     7
100
AcDbMText
 10
180.657496316878
 20
108.6162407771145
 30
0.0
 40
3.5
 41
0.0
 71
     7
 72
     1
  1
63
  7
CONVERTER_13
 11
0.0
 21
1.0
 31
0.0
 73
     1
 44
0.45454545454545
  0
ENDBLK
  5
55C
330
554
100
AcDbEntity
  8
0
100
AcDbBlockEnd
  0
BLOCK
  5
566
330
55F
100
AcDbEntity
  8
0
100
AcDbBlockBegin
  2
*D8
 70
     1
 10
0.0
 20
0.0
 30
0.0
  3
*D8
  1

  0
LINE
  5
560
330
55F
100
AcDbEntity
  8
Bemaßungen_TC_020513_DIN_
  6
Continuous
 62
     7
100
AcDbLine
 10
195.649566321561
 20
73.22094518821035
 30
0.0
 11
195.649566321561
 21
87.22094518821035
 31
0.0
  0
LINE
  5
561
330
55F
100
AcDbEntity
  8
Bemaßungen_TC_020513_DIN_
  6
Continuous
 62
     7
100
AcDbLine
 10
204.649566321561
 20
82.22094518821035
 30
0.0
 11
193.649566321561
 21
82.22094518821035
 31
0.0
  0
LINE
  5
562
330
55F
100
AcDbEntity
  8
Bemaßungen_TC_020513_DIN_
  6
Continuous
 62
     7
100
AcDbLine
 10
204.649566321561
 20
78.22094518821035
 30
0.0
 11
193.649566321561
 21
78.22094518821035
 31
0.0
  0
SOLID
  5
563
330
55F
100
AcDbEntity
  8
Bemaßungen_TC_020513_DIN_
 62
     7
100
AcDbTrace
 10
195.3204350775925
 20
84.72094518821035
 30
0.0
 11
195.9786975655295
 21
84.72094518821035
 31
0.0
 12
195.649566321561
 22
82.22094518821035
 32
0.0
 13
195.649566321561
 23
82.22094518821035
 33
0.0
  0
SOLID
  5
564
330
55F
100
AcDbEntity
  8
Bemaßungen_TC_020513_DIN_
 62
     7
100
AcDbTrace
 10
195.9786975655295
 20
75.72094518821035
 30
0.0
 11
195.3204350775925
 21
75.72094518821035
 31
0.0
 12
195.649566321561
 22
78.22094518821035
 32
0.0
 13
195.649566321561
 23
78.22094518821035
 33
0.0
  0
MTEXT
  5
565
330
55F
100
AcDbEntity
  8
Bemaßungen_TC_020513_DIN_
 62
     7
100
AcDbMText
 10
192.7426011474315
 20
79.74550862613671
 30
0.0
 40
3.5
 41
0.0
 71
     7
 72
     1
  1
4
  7
CONVERTER_13
 11
0.0
 21
1.0
 31
0.0
 73
     1
 44
0.45454545454545
  0
ENDBLK
  5
567
330
55F
100
AcDbEntity
  8
0
100
AcDbBlockEnd
  0
BLOCK
  5
571
330
56A
100
AcDbEntity
  8
0
100
AcDbBlockBegin
  2
*D9
 70
     1
 10
0.0
 20
0.0
 30
0.0
  3
*D9
  1

  0
LINE
  5
56B
330
56A
100
AcDbEntity
  8
Bemaßungen_TC_020513_DIN_
  6
Continuous
 62
     7
100
AcDbLine
 10
256.6495663215635
 20
64.22094518821035
 30
0.0
 11
211.6495663215635
 21
64.22094518821035
 31
0.0
  0
LINE
  5
56C
330
56A
100
AcDbEntity
  8
Bemaßungen_TC_020513_DIN_
  6
Continuous
 62
     7
100
AcDbLine
 10
211.6495663215635
 20
79.22094518821041
 30
0.0
 11
211.6495663215635
 21
62.22094518821035
 31
0.0
  0
LINE
  5
56D
330
56A
100
AcDbEntity
  8
Bemaßungen_TC_020513_DIN_
  6
Continuous
 62
     7
100
AcDbLine
 10
256.6495663215635
 20
79.22094518821041
 30
0.0
 11
256.6495663215635
 21
62.22094518821035
 31
0.0
  0
SOLID
  5
56E
330
56A
100
AcDbEntity
  8
Bemaßungen_TC_020513_DIN_
 62
     7
100
AcDbTrace
 10
214.1495663215635
 20
64.55007643217884
 30
0.0
 11
214.1495663215635
 21
63.89181394424186
 31
0.0
 12
211.6495663215635
 22
64.22094518821035
 32
0.0
 13
211.6495663215635
 23
64.22094518821035
 33
0.0
  0
SOLID
  5
56F
330
56A
100
AcDbEntity
  8
Bemaßungen_TC_020513_DIN_
 62
     7
100
AcDbTrace
 10
254.1495663215635
 20
63.89181394424186
 30
0.0
 11
254.1495663215635
 21
64.55007643217884
 31
0.0
 12
256.6495663215635
 22
64.22094518821035
 32
0.0
 13
256.6495663215635
 23
64.22094518821035
 33
0.0
  0
MTEXT
  5
570
330
56A
100
AcDbEntity
  8
Bemaßungen_TC_020513_DIN_
 62
     7
100
AcDbMText
 10
232.9708509964157
 20
67.20500951867264
 30
0.0
 40
3.5
 41
0.0
 71
     7
 72
     1
  1
45
  7
CONVERTER_13
 11
0.9999999999970619
 21
2.424068405545306E-6
 31
0.0
 73
     1
 44
0.45454545454545
  0
ENDBLK
  5
572
330
56A
100
AcDbEntity
  8
0
100
AcDbBlockEnd
  0
BLOCK
  5
57C
330
575
100
AcDbEntity
  8
0
100
AcDbBlockBegin
  2
*D10
 70
     1
 10
0.0
 20
0.0
 30
0.0
  3
*D10
  1

  0
LINE
  5
576
330
575
100
AcDbEntity
  8
Bemaßungen_TC_020513_DIN_
  6
Continuous
 62
     7
100
AcDbLine
 10
262.6495663215611
 20
56.22094518821034
 30
0.0
 11
205.6495663215611
 21
56.22094518821034
 31
0.0
  0
LINE
  5
577
330
575
100
AcDbEntity
  8
Bemaßungen_TC_020513_DIN_
  6
Continuous
 62
     7
100
AcDbLine
 10
205.6495663215611
 20
77.2209451882103
 30
0.0
 11
205.6495663215611
 21
54.22094518821034
 31
0.0
  0
LINE
  5
578
330
575
100
AcDbEntity
  8
Bemaßungen_TC_020513_DIN_
  6
Continuous
 62
     7
100
AcDbLine
 10
262.6495663215611
 20
77.2209451882103
 30
0.0
 11
262.6495663215611
 21
54.22094518821034
 31
0.0
  0
SOLID
  5
579
330
575
100
AcDbEntity
  8
Bemaßungen_TC_020513_DIN_
 62
     7
100
AcDbTrace
 10
208.1495663215611
 20
56.55007643217883
 30
0.0
 11
208.1495663215611
 21
55.89181394424185
 31
0.0
 12
205.6495663215611
 22
56.22094518821034
 32
0.0
 13
205.6495663215611
 23
56.22094518821034
 33
0.0
  0
SOLID
  5
57A
330
575
100
AcDbEntity
  8
Bemaßungen_TC_020513_DIN_
 62
     7
100
AcDbTrace
 10
260.1495663215611
 20
55.89181394424185
 30
0.0
 11
260.1495663215611
 21
56.55007643217883
 31
0.0
 12
262.6495663215611
 22
56.22094518821034
 32
0.0
 13
262.6495663215611
 23
56.22094518821034
 33
0.0
  0
MTEXT
  5
57B
330
575
100
AcDbEntity
  8
Bemaßungen_TC_020513_DIN_
 62
     7
100
AcDbMText
 10
233.0544117058267
 20
59.21371598633433
 30
0.0
 40
3.5
 41
0.0
 71
     7
 72
     1
  1
57
  7
CONVERTER_13
 11
0.9999999999970619
 21
2.424068405545306E-6
 31
0.0
 73
     1
 44
0.45454545454545
  0
ENDBLK
  5
57D
330
575
100
AcDbEntity
  8
0
100
AcDbBlockEnd
  0
BLOCK
  5
587
330
580
100
AcDbEntity
  8
0
100
AcDbBlockBegin
  2
*D11
 70
     1
 10
0.0
 20
0.0
 30
0.0
  3
*D11
  1

  0
LINE
  5
581
330
580
100
AcDbEntity
  8
Bemaßungen_TC_020513_DIN_
  6
Continuous
 62
     7
100
AcDbLine
 10
145.7995870376791
 20
64.22094518821037
 30
0.0
 11
40.79958703767925
 21
64.22094518821037
 31
0.0
  0
LINE
  5
582
330
580
100
AcDbEntity
  8
Bemaßungen_TC_020513_DIN_
  6
Continuous
 62
     7
100
AcDbLine
 10
40.79958703767925
 20
79.22094518821041
 30
0.0
 11
40.79958703767925
 21
62.22094518821037
 31
0.0
  0
LINE
  5
583
330
580
100
AcDbEntity
  8
Bemaßungen_TC_020513_DIN_
  6
Continuous
 62
     7
100
AcDbLine
 10
145.7995870376791
 20
79.22094518821041
 30
0.0
 11
145.7995870376791
 21
62.22094518821037
 31
0.0
  0
SOLID
  5
584
330
580
100
AcDbEntity
  8
Bemaßungen_TC_020513_DIN_
 62
     7
100
AcDbTrace
 10
43.29958703767925
 20
64.55007643217886
 30
0.0
 11
43.29958703767925
 21
63.89181394424187
 31
0.0
 12
40.79958703767925
 22
64.22094518821037
 32
0.0
 13
40.79958703767925
 23
64.22094518821037
 33
0.0
  0
SOLID
  5
585
330
580
100
AcDbEntity
  8
Bemaßungen_TC_020513_DIN_
 62
     7
100
AcDbTrace
 10
143.2995870376791
 20
63.89181394424187
 30
0.0
 11
143.2995870376791
 21
64.55007643217886
 31
0.0
 12
145.7995870376791
 22
64.22094518821037
 32
0.0
 13
145.7995870376791
 23
64.22094518821037
 33
0.0
  0
MTEXT
  5
586
330
580
100
AcDbEntity
  8
Bemaßungen_TC_020513_DIN_
 62
     7
100
AcDbMText
 10
91.61054997537818
 20
67.21062774405324
 30
0.0
 40
3.5
 41
0.0
 71
     7
 72
     1
  1
105
  7
CONVERTER_13
 11
0.9999999999970619
 21
2.424068405545306E-6
 31
0.0
 73
     1
 44
0.45454545454545
  0
ENDBLK
  5
588
330
580
100
AcDbEntity
  8
0
100
AcDbBlockEnd
  0
BLOCK
  5
592
330
58B
100
AcDbEntity
  8
0
100
AcDbBlockBegin
  2
*D12
 70
     1
 10
0.0
 20
0.0
 30
0.0
  3
*D12
  1

  0
LINE
  5
58C
330
58B
100
AcDbEntity
  8
Bemaßungen_TC_020513_DIN_
  6
Continuous
 62
     7
100
AcDbLine
 10
151.7995870376793
 20
56.21893952165021
 30
0.0
 11
34.79958703767928
 21
56.21893952165021
 31
0.0
  0
LINE
  5
58D
330
58B
100
AcDbEntity
  8
Bemaßungen_TC_020513_DIN_
  6
Continuous
 62
     7
100
AcDbLine
 10
34.79958703767928
 20
79.22094518821041
 30
0.0
 11
34.79958703767928
 21
54.21893952165021
 31
0.0
  0
LINE
  5
58E
330
58B
100
AcDbEntity
  8
Bemaßungen_TC_020513_DIN_
  6
Continuous
 62
     7
100
AcDbLine
 10
151.7995870376793
 20
79.22094518821041
 30
0.0
 11
151.7995870376793
 21
54.21893952165021
 31
0.0
  0
SOLID
  5
58F
330
58B
100
AcDbEntity
  8
Bemaßungen_TC_020513_DIN_
 62
     7
100
AcDbTrace
 10
37.29958703767928
 20
56.5480707656187
 30
0.0
 11
37.29958703767928
 21
55.88980827768172
 31
0.0
 12
34.79958703767928
 22
56.21893952165021
 32
0.0
 13
34.79958703767928
 23
56.21893952165021
 33
0.0
  0
SOLID
  5
590
330
58B
100
AcDbEntity
  8
Bemaßungen_TC_020513_DIN_
 62
     7
100
AcDbTrace
 10
149.2995870376793
 20
55.88980827768172
 30
0.0
 11
149.2995870376793
 21
56.5480707656187
 31
0.0
 12
151.7995870376793
 22
56.21893952165021
 32
0.0
 13
151.7995870376793
 23
56.21893952165021
 33
0.0
  0
MTEXT
  5
591
330
58B
100
AcDbEntity
  8
Bemaßungen_TC_020513_DIN_
 62
     7
100
AcDbMText
 10
91.68618094400031
 20
59.13152292116016
 30
0.0
 40
3.5
 41
0.0
 71
     7
 72
     1
  1
117
  7
CONVERTER_13
 11
0.9999999999970619
 21
2.424068405545306E-6
 31
0.0
 73
     1
 44
0.45454545454545
  0
ENDBLK
  5
593
330
58B
100
AcDbEntity
  8
0
100
AcDbBlockEnd
  0
ENDSEC
  0
SECTION
  2
ENTITIES
  0
INSERT
  5
56
330
1F
100
AcDbEntity
  8
0
100
AcDbBlockReference
  2
A4_oriz
 10
297.0000000000002
 20
0.0
 30
0.0
  0
POINT
  5
B2
330
1F
100
AcDbEntity
  8
Bemaßungen_TC_020513_DIN_
 62
     7
100
AcDbPoint
 10
151.799587037679
 20
112.1629451882098
 30
0.0
  0
POINT
  5
B3
330
1F
100
AcDbEntity
  8
Bemaßungen_TC_020513_DIN_
 62
     7
100
AcDbPoint
 10
151.799587037679
 20
83.0589451882104
 30
0.0
  0
POINT
  5
B4
330
1F
100
AcDbEntity
  8
Bemaßungen_TC_020513_DIN_
 62
     7
100
AcDbPoint
 10
34.79958703767926
 20
78.22094518821041
 30
0.0
  0
POINT
  5
B5
330
1F
100
AcDbEntity
  8
Bemaßungen_TC_020513_DIN_
 62
     7
100
AcDbPoint
 10
43.79958703767926
 20
159.2209451882108
 30
0.0
  0
POINT
  5
B6
330
1F
100
AcDbEntity
  8
Bemaßungen_TC_020513_DIN_
 62
     7
100
AcDbPoint
 10
280.083516293284
 20
123.2209451882108
 30
0.0
  0
POINT
  5
B7
330
1F
100
AcDbEntity
  8
Bemaßungen_TC_020513_DIN_
 62
     7
100
AcDbPoint
 10
205.649566321561
 20
78.22094518821041
 30
0.0
  0
POINT
  5
B8
330
1F
100
AcDbEntity
  8
Bemaßungen_TC_020513_DIN_
 62
     7
100
AcDbPoint
 10
39.79958703767926
 20
134.2209451882108
 30
0.0
  0
POINT
  5
B9
330
1F
100
AcDbEntity
  8
Bemaßungen_TC_020513_DIN_
 62
     7
100
AcDbPoint
 10
146.799587037679
 20
134.2209451882108
 30
0.0
  0
POINT
  5
BA
330
1F
100
AcDbEntity
  8
Bemaßungen_TC_020513_DIN_
 62
     7
100
AcDbPoint
 10
205.649566321561
 20
78.22094518821041
 30
0.0
  0
POINT
  5
BB
330
1F
100
AcDbEntity
  8
Bemaßungen_TC_020513_DIN_
 62
     7
100
AcDbPoint
 10
214.9995663215659
 20
141.2209451882108
 30
0.0
  0
POINT
  5
BC
330
1F
100
AcDbEntity
  8
Bemaßungen_TC_020513_DIN_
 62
     7
100
AcDbPoint
 10
205.649566321561
 20
82.22094518821041
 30
0.0
  0
POINT
  5
BD
330
1F
100
AcDbEntity
  8
Bemaßungen_TC_020513_DIN_
 62
     7
100
AcDbPoint
 10
205.649566321561
 20
78.22094518821041
 30
0.0
  0
POINT
  5
BE
330
1F
100
AcDbEntity
  8
Bemaßungen_TC_020513_DIN_
 62
     7
100
AcDbPoint
 10
211.6495663215629
 20
80.22094518821041
 30
0.0
  0
POINT
  5
BF
330
1F
100
AcDbEntity
  8
Bemaßungen_TC_020513_DIN_
 62
     7
100
AcDbPoint
 10
256.649566321563
 20
80.22094518821041
 30
0.0
  0
POINT
  5
C0
330
1F
100
AcDbEntity
  8
Bemaßungen_TC_020513_DIN_
 62
     7
100
AcDbPoint
 10
205.649566321561
 20
78.22094518821041
 30
0.0
  0
POINT
  5
C1
330
1F
100
AcDbEntity
  8
Bemaßungen_TC_020513_DIN_
 62
     7
100
AcDbPoint
 10
262.649566321561
 20
78.22094518821041
 30
0.0
  0
POINT
  5
C2
330
1F
100
AcDbEntity
  8
Bemaßungen_TC_020513_DIN_
 62
     7
100
AcDbPoint
 10
40.79958703767926
 20
80.22094518821041
 30
0.0
  0
POINT
  5
C3
330
1F
100
AcDbEntity
  8
Bemaßungen_TC_020513_DIN_
 62
     7
100
AcDbPoint
 10
145.799587037679
 20
80.22094518821041
 30
0.0
  0
POINT
  5
C4
330
1F
100
AcDbEntity
  8
Bemaßungen_TC_020513_DIN_
 62
     7
100
AcDbPoint
 10
34.79958703767926
 20
80.22094518821041
 30
0.0
  0
POINT
  5
C5
330
1F
100
AcDbEntity
  8
Bemaßungen_TC_020513_DIN_
 62
     7
100
AcDbPoint
 10
151.799587037679
 20
80.22094518821041
 30
0.0
  0
LINE
  5
C6
330
1F
100
AcDbEntity
  8
Sichtbare_Kanten_TC_020513_DIN_
  6
Continuous
 62
     7
100
AcDbLine
 10
96.29958703767926
 20
144.4709451882108
 30
0.0
 11
95.54958703767926
 21
144.4709451882108
 31
0.0
  0
LINE
  5
C7
330
1F
100
AcDbEntity
  8
Sichtbare_Kanten_TC_020513_DIN_
  6
Continuous
 62
     7
100
AcDbLine
 10
95.54958703767926
 20
144.4709451882108
 30
0.0
 11
95.54958703767926
 21
143.4235091128108
 31
0.0
  0
LINE
  5
C8
330
1F
100
AcDbEntity
  8
Sichtbare_Kanten_TC_020513_DIN_
  6
Continuous
 62
     7
100
AcDbLine
 10
95.54958703767926
 20
143.4235091128108
 30
0.0
 11
96.17465642430687
 21
143.7841260666338
 31
0.0
  0
LINE
  5
C9
330
1F
100
AcDbEntity
  8
Sichtbare_Kanten_TC_020513_DIN_
  6
Continuous
 62
     7
100
AcDbLine
 10
96.42451765105164
 20
143.3510332736098
 30
0.0
 11
95.42451765105164
 21
142.7741101966868
 31
0.0
  0
LINE
  5
CA
330
1F
100
AcDbEntity
  8
Sichtbare_Kanten_TC_020513_DIN_
  6
Continuous
 62
     7
100
AcDbLine
 10
95.04958703767926
 20
142.9906565931988
 30
0.0
 11
95.04958703767926
 21
146.4512337832218
 31
0.0
  0
LINE
  5
CB
330
1F
100
AcDbEntity
  8
Sichtbare_Kanten_TC_020513_DIN_
  6
Continuous
 62
     7
100
AcDbLine
 10
95.54958703767926
 20
144.9709451882108
 30
0.0
 11
96.29958703767926
 21
144.9709451882108
 31
0.0
  0
LINE
  5
CC
330
1F
100
AcDbEntity
  8
Sichtbare_Kanten_TC_020513_DIN_
  6
Continuous
 62
     7
100
AcDbLine
 10
95.54958703767926
 20
146.0183812636098
 30
0.0
 11
95.54958703767926
 21
144.9709451882108
 31
0.0
  0
LINE
  5
CD
330
1F
100
AcDbEntity
  8
Sichtbare_Kanten_TC_020513_DIN_
  6
Continuous
 62
     7
100
AcDbLine
 10
96.17465642430687
 20
145.6577643097868
 30
0.0
 11
95.54958703767926
 21
146.0183812636098
 31
0.0
  0
LINE
  5
CE
330
1F
100
AcDbEntity
  8
Sichtbare_Kanten_TC_020513_DIN_
  6
Continuous
 62
     7
100
AcDbLine
 10
95.42451765105164
 20
146.6677801797338
 30
0.0
 11
96.42451765105164
 21
146.0908571028108
 31
0.0
  0
LINE
  5
CF
330
1F
100
AcDbEntity
  8
Sichtbare_Kanten_TC_020513_DIN_
  6
Continuous
 62
     7
100
AcDbLine
 10
89.99958703767925
 20
143.5964258239688
 30
0.0
 11
89.99958703767925
 21
145.8454645524528
 31
0.0
  0
LINE
  5
D0
330
1F
100
AcDbEntity
  8
Sichtbare_Kanten_TC_020513_DIN_
  6
Continuous
 62
     7
100
AcDbLine
 10
90.49958703767925
 20
145.8454645524528
 30
0.0
 11
90.49958703767925
 21
143.5964258239688
 31
0.0
  0
LINE
  5
D1
330
1F
100
AcDbEntity
  8
Sichtbare_Kanten_TC_020513_DIN_
  6
Continuous
 62
     7
100
AcDbLine
 10
99.29930933701894
 20
144.7209451882108
 30
0.0
 11
93.29958703767926
 21
148.1823234378298
 31
0.0
  0
LINE
  5
D2
330
1F
100
AcDbEntity
  8
Sichtbare_Kanten_TC_020513_DIN_
  6
Continuous
 62
     7
100
AcDbLine
 10
93.29958703767926
 20
148.1823234378298
 30
0.0
 11
87.29986473833935
 21
144.7209451882108
 31
0.0
  0
LINE
  5
D3
330
1F
100
AcDbEntity
  8
Sichtbare_Kanten_TC_020513_DIN_
  6
Continuous
 62
     7
100
AcDbLine
 10
93.29958703767926
 20
148.4709451882108
 30
0.0
 11
99.79958703767898
 21
144.7209451882108
 31
0.0
  0
LINE
  5
D4
330
1F
100
AcDbEntity
  8
Sichtbare_Kanten_TC_020513_DIN_
  6
Continuous
 62
     7
100
AcDbLine
 10
99.79958703767898
 20
144.7209451882108
 30
0.0
 11
93.29958703767926
 21
140.9709451882108
 31
0.0
  0
LINE
  5
D5
330
1F
100
AcDbEntity
  8
Sichtbare_Kanten_TC_020513_DIN_
  6
Continuous
 62
     7
100
AcDbLine
 10
87.29986473833935
 20
144.7209451882108
 30
0.0
 11
93.29958703767926
 21
141.2595669385908
 31
0.0
  0
LINE
  5
D6
330
1F
100
AcDbEntity
  8
Sichtbare_Kanten_TC_020513_DIN_
  6
Continuous
 62
     7
100
AcDbLine
 10
93.29958703767926
 20
141.2595669385908
 30
0.0
 11
99.29930933701894
 21
144.7209451882108
 31
0.0
  0
LINE
  5
D7
330
1F
100
AcDbEntity
  8
Sichtbare_Kanten_TC_020513_DIN_
  6
Continuous
 62
     7
100
AcDbLine
 10
93.29958703767926
 20
140.9709451882108
 30
0.0
 11
86.79958703767926
 21
144.7209451882108
 31
0.0
  0
LINE
  5
D8
330
1F
100
AcDbEntity
  8
Sichtbare_Kanten_TC_020513_DIN_
  6
Continuous
 62
     7
100
AcDbLine
 10
86.79958703767926
 20
144.7209451882108
 30
0.0
 11
93.29958703767926
 21
148.4709451882108
 31
0.0
  0
LINE
  5
D9
330
1F
100
AcDbEntity
  8
Sichtbare_Kanten_TC_020513_DIN_
  6
Continuous
 62
     7
100
AcDbLine
 10
93.17465642430687
 20
141.6202640428408
 30
0.0
 11
91.12465642430686
 21
142.8029563505328
 31
0.0
  0
LINE
  5
DA
330
1F
100
AcDbEntity
  8
Sichtbare_Kanten_TC_020513_DIN_
  6
Continuous
 62
     7
100
AcDbLine
 10
90.99958703767925
 20
143.0195027470448
 30
0.0
 11
90.99958703767925
 21
146.4223876293758
 31
0.0
  0
LINE
  5
DB
330
1F
100
AcDbEntity
  8
Sichtbare_Kanten_TC_020513_DIN_
  6
Continuous
 62
     7
100
AcDbLine
 10
91.49958703767925
 20
143.1638937281948
 30
0.0
 11
93.42451765105164
 21
142.0533568358648
 31
0.0
  0
LINE
  5
DC
330
1F
100
AcDbEntity
  8
Sichtbare_Kanten_TC_020513_DIN_
  6
Continuous
 62
     7
100
AcDbLine
 10
91.49958703767925
 20
146.4223876293758
 30
0.0
 11
91.49958703767925
 21
143.1638937281948
 31
0.0
  0
LINE
  5
DD
330
1F
100
AcDbEntity
  8
Sichtbare_Kanten_TC_020513_DIN_
  6
Continuous
 62
     7
100
AcDbLine
 10
92.50207294400627
 20
147.1747837940248
 30
0.0
 11
93.29958703767926
 21
146.0734488633038
 31
0.0
  0
LINE
  5
DE
330
1F
100
AcDbEntity
  8
Sichtbare_Kanten_TC_020513_DIN_
  6
Continuous
 62
     7
100
AcDbLine
 10
93.29958703767926
 20
146.0734488633038
 30
0.0
 11
94.09710113135225
 21
147.1747837940248
 31
0.0
  0
LINE
  5
DF
330
1F
100
AcDbEntity
  8
Sichtbare_Kanten_TC_020513_DIN_
  6
Continuous
 62
     7
100
AcDbLine
 10
94.54958703767926
 20
147.0281568601448
 30
0.0
 11
94.54958703767926
 21
142.4137335162758
 31
0.0
  0
LINE
  5
E0
330
1F
100
AcDbEntity
  8
Sichtbare_Kanten_TC_020513_DIN_
  6
Continuous
 62
     7
100
AcDbLine
 10
94.04958703767926
 20
142.4137335162758
 30
0.0
 11
94.04958703767926
 21
146.2566650640008
 31
0.0
  0
LINE
  5
E1
330
1F
100
AcDbEntity
  8
Sichtbare_Kanten_TC_020513_DIN_
  6
Continuous
 62
     7
100
AcDbLine
 10
94.04958703767926
 20
146.2566650640008
 30
0.0
 11
93.29958703767926
 21
145.2209451882108
 31
0.0
  0
LINE
  5
E2
330
1F
100
AcDbEntity
  8
Sichtbare_Kanten_TC_020513_DIN_
  6
Continuous
 62
     7
100
AcDbLine
 10
92.04958703767926
 20
143.5964258239688
 30
0.0
 11
92.04958703767926
 21
147.0281568601448
 31
0.0
  0
LINE
  5
E3
330
1F
100
AcDbEntity
  8
Sichtbare_Kanten_TC_020513_DIN_
  6
Continuous
 62
     7
100
AcDbLine
 10
92.54958703767926
 20
146.2566650640008
 30
0.0
 11
92.54958703767926
 21
143.5964258239688
 31
0.0
  0
LINE
  5
E4
330
1F
100
AcDbEntity
  8
Sichtbare_Kanten_TC_020513_DIN_
  6
Continuous
 62
     7
100
AcDbLine
 10
93.29958703767926
 20
145.2209451882108
 30
0.0
 11
92.54958703767926
 21
146.2566650640008
 31
0.0
  0
LINE
  5
E5
330
1F
100
AcDbEntity
  8
Sichtbare_Kanten_TC_020513_DIN_
  6
Continuous
 62
     7
100
AcDbLine
 10
129.9230698132579
 20
140.0217534947078
 30
0.0
 11
130.2914682785159
 21
141.3966352844808
 31
0.0
  0
LINE
  5
E6
330
1F
100
AcDbEntity
  8
Sichtbare_Kanten_TC_020513_DIN_
  6
Continuous
 62
     7
100
AcDbLine
 10
130.532949735089
 20
141.5819305232058
 30
0.0
 11
139.999587037679
 21
141.5819305232058
 31
0.0
  0
LINE
  5
E7
330
1F
100
AcDbEntity
  8
Sichtbare_Kanten_TC_020513_DIN_
  6
Continuous
 62
     7
100
AcDbLine
 10
139.999587037679
 20
151.5819305232058
 30
0.0
 11
138.032949735089
 21
151.5819305232058
 31
0.0
  0
LINE
  5
E8
330
1F
100
AcDbEntity
  8
Sichtbare_Kanten_TC_020513_DIN_
  6
Continuous
 62
     7
100
AcDbLine
 10
137.2669052919699
 20
151.2247181328918
 30
0.0
 11
136.188179599543
 21
149.9391429135188
 31
0.0
  0
LINE
  5
E9
330
1F
100
AcDbEntity
  8
Sichtbare_Kanten_TC_020513_DIN_
  6
Continuous
 62
     7
100
AcDbLine
 10
135.422135156424
 20
149.5819305232058
 30
0.0
 11
130.532949735089
 21
149.5819305232058
 31
0.0
  0
LINE
  5
EA
330
1F
100
AcDbEntity
  8
Sichtbare_Kanten_TC_020513_DIN_
  6
Continuous
 62
     7
100
AcDbLine
 10
128.421800112162
 20
151.3985678257958
 30
0.0
 11
127.099665005429
 21
151.3985678257958
 31
0.0
  0
LINE
  5
EB
330
1F
100
AcDbEntity
  8
Sichtbare_Kanten_TC_020513_DIN_
  6
Continuous
 62
     7
100
AcDbLine
 10
125.167813352851
 20
151.3985678257958
 30
0.0
 11
127.099665005429
 21
151.3985678257958
 31
0.0
  0
LINE
  5
EC
330
1F
100
AcDbEntity
  8
Sichtbare_Kanten_TC_020513_DIN_
  6
Continuous
 62
     7
100
AcDbLine
 10
128.058823740403
 20
133.9217167580218
 30
0.0
 11
129.687369393205
 21
139.4300879282708
 31
0.0
  0
LINE
  5
ED
330
1F
100
AcDbEntity
  8
Sichtbare_Kanten_TC_020513_DIN_
  6
Continuous
 62
     7
100
AcDbLine
 10
127.099665005429
 20
152.7985678257958
 30
0.0
 11
125.167813352851
 21
152.7985678257958
 31
0.0
  0
LINE
  5
EE
330
1F
100
AcDbEntity
  8
Sichtbare_Kanten_TC_020513_DIN_
  6
Continuous
 62
     7
100
AcDbLine
 10
127.099665005429
 20
152.7985678257958
 30
0.0
 11
128.421800112162
 21
152.7985678257958
 31
0.0
  0
LINE
  5
EF
330
1F
100
AcDbEntity
  8
Sichtbare_Kanten_TC_020513_DIN_
  6
Continuous
 62
     7
100
AcDbLine
 10
142.799587037679
 20
154.0644064570008
 30
0.0
 11
142.799587037679
 21
152.0171867724018
 31
0.0
  0
LINE
  5
F0
330
1F
100
AcDbEntity
  8
Sichtbare_Kanten_TC_020513_DIN_
  6
Continuous
 62
     7
100
AcDbLine
 10
141.399587037679
 20
152.0171867724018
 30
0.0
 11
141.399587037679
 21
154.0644064570008
 31
0.0
  0
LINE
  5
F1
330
1F
100
AcDbEntity
  8
Sichtbare_Kanten_TC_020513_DIN_
  6
Continuous
 62
     7
100
AcDbLine
 10
142.799587037679
 20
141.5819305232058
 30
0.0
 11
142.799587037679
 21
137.6130949513028
 31
0.0
  0
LINE
  5
F2
330
1F
100
AcDbEntity
  8
Sichtbare_Kanten_TC_020513_DIN_
  6
Continuous
 62
     7
100
AcDbLine
 10
142.799587037679
 20
137.6130949513028
 30
0.0
 11
142.799587037679
 21
137.2645230595838
 31
0.0
  0
LINE
  5
F3
330
1F
100
AcDbEntity
  8
Sichtbare_Kanten_TC_020513_DIN_
  6
Continuous
 62
     7
100
AcDbLine
 10
142.799587037679
 20
137.2645230595838
 30
0.0
 11
142.799587037679
 21
132.4365435034818
 31
0.0
  0
LINE
  5
F4
330
1F
100
AcDbEntity
  8
Sichtbare_Kanten_TC_020513_DIN_
  6
Continuous
 62
     7
100
AcDbLine
 10
142.799587037679
 20
124.2209451882108
 30
0.0
 11
142.799587037679
 21
132.4365435034818
 31
0.0
  0
LINE
  5
F5
330
1F
100
AcDbEntity
  8
Sichtbare_Kanten_TC_020513_DIN_
  6
Continuous
 62
     7
100
AcDbLine
 10
142.799587037679
 20
124.2209451882108
 30
0.0
 11
142.799587037679
 21
124.0832902732028
 31
0.0
  0
LINE
  5
F6
330
1F
100
AcDbEntity
  8
Sichtbare_Kanten_TC_020513_DIN_
  6
Continuous
 62
     7
100
AcDbLine
 10
142.799587037679
 20
154.0644064570008
 30
0.0
 11
142.799587037679
 21
159.2209451882108
 31
0.0
  0
LINE
  5
F7
330
1F
100
AcDbEntity
  8
Sichtbare_Kanten_TC_020513_DIN_
  6
Continuous
 62
     7
100
AcDbLine
 10
141.399587037679
 20
159.2209451882108
 30
0.0
 11
141.399587037679
 21
154.0644064570008
 31
0.0
  0
LINE
  5
F8
330
1F
100
AcDbEntity
  8
Sichtbare_Kanten_TC_020513_DIN_
  6
Continuous
 62
     7
100
AcDbLine
 10
141.399587037679
 20
124.0832902732028
 30
0.0
 11
141.399587037679
 21
124.2209451882108
 31
0.0
  0
LINE
  5
F9
330
1F
100
AcDbEntity
  8
Sichtbare_Kanten_TC_020513_DIN_
  6
Continuous
 62
     7
100
AcDbLine
 10
141.399587037679
 20
132.4365435034818
 30
0.0
 11
141.399587037679
 21
124.2209451882108
 31
0.0
  0
LINE
  5
FA
330
1F
100
AcDbEntity
  8
Sichtbare_Kanten_TC_020513_DIN_
  6
Continuous
 62
     7
100
AcDbLine
 10
141.399587037679
 20
132.4365435034818
 30
0.0
 11
141.399587037679
 21
137.2645230595838
 31
0.0
  0
LINE
  5
FB
330
1F
100
AcDbEntity
  8
Sichtbare_Kanten_TC_020513_DIN_
  6
Continuous
 62
     7
100
AcDbLine
 10
141.399587037679
 20
137.2645230595838
 30
0.0
 11
141.399587037679
 21
137.6130949513028
 31
0.0
  0
LINE
  5
FC
330
1F
100
AcDbEntity
  8
Sichtbare_Kanten_TC_020513_DIN_
  6
Continuous
 62
     7
100
AcDbLine
 10
141.399587037679
 20
137.6130949513028
 30
0.0
 11
141.399587037679
 21
141.5819305232058
 31
0.0
  0
LINE
  5
FD
330
1F
100
AcDbEntity
  8
Sichtbare_Kanten_TC_020513_DIN_
  6
Continuous
 62
     7
100
AcDbLine
 10
142.799587037679
 20
124.2209451882108
 30
0.0
 11
141.399587037679
 21
124.2209451882108
 31
0.0
  0
LINE
  5
FE
330
1F
100
AcDbEntity
  8
Sichtbare_Kanten_TC_020513_DIN_
  6
Continuous
 62
     7
100
AcDbLine
 10
142.799587037679
 20
159.2209451882108
 30
0.0
 11
141.399587037679
 21
159.2209451882108
 31
0.0
  0
LINE
  5
FF
330
1F
100
AcDbEntity
  8
Sichtbare_Kanten_TC_020513_DIN_
  6
Continuous
 62
     7
100
AcDbLine
 10
142.899587037679
 20
123.9832902732028
 30
0.0
 11
143.133575609095
 21
123.9832902732028
 31
0.0
  0
LINE
  5
100
330
1F
100
AcDbEntity
  8
Sichtbare_Kanten_TC_020513_DIN_
  6
Continuous
 62
     7
100
AcDbLine
 10
144.799587037679
 20
123.9832902732028
 30
0.0
 11
145.337241952687
 21
123.9832902732028
 31
0.0
  0
LINE
  5
101
330
1F
100
AcDbEntity
  8
Sichtbare_Kanten_TC_020513_DIN_
  6
Continuous
 62
     7
100
AcDbLine
 10
145.837241952687
 20
123.9832902732028
 30
0.0
 11
145.337241952687
 21
123.9832902732028
 31
0.0
  0
LINE
  5
102
330
1F
100
AcDbEntity
  8
Sichtbare_Kanten_TC_020513_DIN_
  6
Continuous
 62
     7
100
AcDbLine
 10
145.337241952687
 20
122.5832902732028
 30
0.0
 11
144.799587037679
 21
122.5832902732028
 31
0.0
  0
LINE
  5
103
330
1F
100
AcDbEntity
  8
Sichtbare_Kanten_TC_020513_DIN_
  6
Continuous
 62
     7
100
AcDbLine
 10
145.337241952687
 20
122.5832902732028
 30
0.0
 11
145.837241952687
 21
122.5832902732028
 31
0.0
  0
LINE
  5
104
330
1F
100
AcDbEntity
  8
Sichtbare_Kanten_TC_020513_DIN_
  6
Continuous
 62
     7
100
AcDbLine
 10
145.837241952687
 20
123.9832902732028
 30
0.0
 11
145.837241952687
 21
122.5832902732028
 31
0.0
  0
LINE
  5
105
330
1F
100
AcDbEntity
  8
Sichtbare_Kanten_TC_020513_DIN_
  6
Continuous
 62
     7
100
AcDbLine
 10
129.687369393205
 20
138.8384223618338
 30
0.0
 11
128.058823740403
 21
133.3300511915848
 31
0.0
  0
LINE
  5
106
330
1F
100
AcDbEntity
  8
Sichtbare_Kanten_TC_020513_DIN_
  6
Continuous
 62
     7
100
AcDbLine
 10
51.17703891893456
 20
149.5819305232058
 30
0.0
 11
56.06622434026997
 21
149.5819305232058
 31
0.0
  0
LINE
  5
107
330
1F
100
AcDbEntity
  8
Sichtbare_Kanten_TC_020513_DIN_
  6
Continuous
 62
     7
100
AcDbLine
 10
49.33226878338894
 20
151.2247181328918
 30
0.0
 11
50.41099447581559
 21
149.9391429135188
 31
0.0
  0
LINE
  5
108
330
1F
100
AcDbEntity
  8
Sichtbare_Kanten_TC_020513_DIN_
  6
Continuous
 62
     7
100
AcDbLine
 10
46.59958703767927
 20
151.5819305232058
 30
0.0
 11
48.56622434026997
 21
151.5819305232058
 31
0.0
  0
LINE
  5
109
330
1F
100
AcDbEntity
  8
Sichtbare_Kanten_TC_020513_DIN_
  6
Continuous
 62
     7
100
AcDbLine
 10
56.06622434026997
 20
141.5819305232058
 30
0.0
 11
46.59958703767927
 21
141.5819305232058
 31
0.0
  0
LINE
  5
10A
330
1F
100
AcDbEntity
  8
Sichtbare_Kanten_TC_020513_DIN_
  6
Continuous
 62
     7
100
AcDbLine
 10
56.67610426210018
 20
140.0217534947078
 30
0.0
 11
56.30770579684224
 21
141.3966352844808
 31
0.0
  0
LINE
  5
10B
330
1F
100
AcDbEntity
  8
Sichtbare_Kanten_TC_020513_DIN_
  6
Continuous
 62
     7
100
AcDbLine
 10
43.79958703767926
 20
124.2209451882108
 30
0.0
 11
43.79958703767926
 21
124.0832902732028
 31
0.0
  0
LINE
  5
10C
330
1F
100
AcDbEntity
  8
Sichtbare_Kanten_TC_020513_DIN_
  6
Continuous
 62
     7
100
AcDbLine
 10
43.79958703767926
 20
124.2209451882108
 30
0.0
 11
43.79958703767926
 21
132.4365435034818
 31
0.0
  0
LINE
  5
10D
330
1F
100
AcDbEntity
  8
Sichtbare_Kanten_TC_020513_DIN_
  6
Continuous
 62
     7
100
AcDbLine
 10
43.79958703767926
 20
137.2645230595838
 30
0.0
 11
43.79958703767926
 21
132.4365435034818
 31
0.0
  0
LINE
  5
10E
330
1F
100
AcDbEntity
  8
Sichtbare_Kanten_TC_020513_DIN_
  6
Continuous
 62
     7
100
AcDbLine
 10
43.79958703767926
 20
137.6130949513028
 30
0.0
 11
43.79958703767926
 21
137.2645230595838
 31
0.0
  0
LINE
  5
10F
330
1F
100
AcDbEntity
  8
Sichtbare_Kanten_TC_020513_DIN_
  6
Continuous
 62
     7
100
AcDbLine
 10
43.79958703767926
 20
141.5819305232058
 30
0.0
 11
43.79958703767926
 21
137.6130949513028
 31
0.0
  0
LINE
  5
110
330
1F
100
AcDbEntity
  8
Sichtbare_Kanten_TC_020513_DIN_
  6
Continuous
 62
     7
100
AcDbLine
 10
43.79958703767926
 20
154.0644064570008
 30
0.0
 11
43.79958703767926
 21
152.0171867724018
 31
0.0
  0
LINE
  5
111
330
1F
100
AcDbEntity
  8
Sichtbare_Kanten_TC_020513_DIN_
  6
Continuous
 62
     7
100
AcDbLine
 10
43.79958703767926
 20
154.0644064570008
 30
0.0
 11
43.79958703767926
 21
159.2209451882108
 31
0.0
  0
LINE
  5
112
330
1F
100
AcDbEntity
  8
Sichtbare_Kanten_TC_020513_DIN_
  6
Continuous
 62
     7
100
AcDbLine
 10
45.19958703767929
 20
159.2209451882108
 30
0.0
 11
45.19958703767929
 21
154.0644064570008
 31
0.0
  0
LINE
  5
113
330
1F
100
AcDbEntity
  8
Sichtbare_Kanten_TC_020513_DIN_
  6
Continuous
 62
     7
100
AcDbLine
 10
45.19958703767929
 20
152.0171867724018
 30
0.0
 11
45.19958703767929
 21
154.0644064570008
 31
0.0
  0
LINE
  5
114
330
1F
100
AcDbEntity
  8
Sichtbare_Kanten_TC_020513_DIN_
  6
Continuous
 62
     7
100
AcDbLine
 10
45.19958703767929
 20
137.6130949513028
 30
0.0
 11
45.19958703767929
 21
141.5819305232058
 31
0.0
  0
LINE
  5
115
330
1F
100
AcDbEntity
  8
Sichtbare_Kanten_TC_020513_DIN_
  6
Continuous
 62
     7
100
AcDbLine
 10
45.19958703767929
 20
137.2645230595838
 30
0.0
 11
45.19958703767929
 21
137.6130949513028
 31
0.0
  0
LINE
  5
116
330
1F
100
AcDbEntity
  8
Sichtbare_Kanten_TC_020513_DIN_
  6
Continuous
 62
     7
100
AcDbLine
 10
45.19958703767929
 20
132.4365435034818
 30
0.0
 11
45.19958703767929
 21
137.2645230595838
 31
0.0
  0
LINE
  5
117
330
1F
100
AcDbEntity
  8
Sichtbare_Kanten_TC_020513_DIN_
  6
Continuous
 62
     7
100
AcDbLine
 10
45.19958703767929
 20
132.4365435034818
 30
0.0
 11
45.19958703767929
 21
124.2209451882108
 31
0.0
  0
LINE
  5
118
330
1F
100
AcDbEntity
  8
Sichtbare_Kanten_TC_020513_DIN_
  6
Continuous
 62
     7
100
AcDbLine
 10
45.19958703767929
 20
124.0832902732028
 30
0.0
 11
45.19958703767929
 21
124.2209451882108
 31
0.0
  0
LINE
  5
119
330
1F
100
AcDbEntity
  8
Sichtbare_Kanten_TC_020513_DIN_
  6
Continuous
 62
     7
100
AcDbLine
 10
43.79958703767926
 20
124.2209451882108
 30
0.0
 11
45.19958703767929
 21
124.2209451882108
 31
0.0
  0
LINE
  5
11A
330
1F
100
AcDbEntity
  8
Sichtbare_Kanten_TC_020513_DIN_
  6
Continuous
 62
     7
100
AcDbLine
 10
43.79958703767926
 20
159.2209451882108
 30
0.0
 11
45.19958703767929
 21
159.2209451882108
 31
0.0
  0
LINE
  5
11B
330
1F
100
AcDbEntity
  8
Sichtbare_Kanten_TC_020513_DIN_
  6
Continuous
 62
     7
100
AcDbLine
 10
59.49950906992933
 20
152.7985678257958
 30
0.0
 11
61.43136072250758
 21
152.7985678257958
 31
0.0
  0
LINE
  5
11C
330
1F
100
AcDbEntity
  8
Sichtbare_Kanten_TC_020513_DIN_
  6
Continuous
 62
     7
100
AcDbLine
 10
61.43136072250758
 20
151.3985678257958
 30
0.0
 11
59.49950906992933
 21
151.3985678257958
 31
0.0
  0
LINE
  5
11D
330
1F
100
AcDbEntity
  8
Sichtbare_Kanten_TC_020513_DIN_
  6
Continuous
 62
     7
100
AcDbLine
 10
58.17737396319706
 20
151.3985678257958
 30
0.0
 11
59.49950906992933
 21
151.3985678257958
 31
0.0
  0
LINE
  5
11E
330
1F
100
AcDbEntity
  8
Sichtbare_Kanten_TC_020513_DIN_
  6
Continuous
 62
     7
100
AcDbLine
 10
59.49950906992933
 20
152.7985678257958
 30
0.0
 11
58.17737396319706
 21
152.7985678257958
 31
0.0
  0
LINE
  5
11F
330
1F
100
AcDbEntity
  8
Sichtbare_Kanten_TC_020513_DIN_
  6
Continuous
 62
     7
100
AcDbLine
 10
43.69958703767929
 20
123.9832902732028
 30
0.0
 11
43.46559846626349
 21
123.9832902732028
 31
0.0
  0
LINE
  5
120
330
1F
100
AcDbEntity
  8
Sichtbare_Kanten_TC_020513_DIN_
  6
Continuous
 62
     7
100
AcDbLine
 10
41.79958703767926
 20
123.9832902732028
 30
0.0
 11
41.26193212267174
 21
123.9832902732028
 31
0.0
  0
LINE
  5
121
330
1F
100
AcDbEntity
  8
Sichtbare_Kanten_TC_020513_DIN_
  6
Continuous
 62
     7
100
AcDbLine
 10
41.26193212267174
 20
122.5832902732028
 30
0.0
 11
41.79958703767926
 21
122.5832902732028
 31
0.0
  0
LINE
  5
122
330
1F
100
AcDbEntity
  8
Sichtbare_Kanten_TC_020513_DIN_
  6
Continuous
 62
     7
100
AcDbLine
 10
41.26193212267174
 20
122.5832902732028
 30
0.0
 11
40.76193212267174
 21
122.5832902732028
 31
0.0
  0
LINE
  5
123
330
1F
100
AcDbEntity
  8
Sichtbare_Kanten_TC_020513_DIN_
  6
Continuous
 62
     7
100
AcDbLine
 10
40.76193212267174
 20
123.9832902732028
 30
0.0
 11
41.26193212267174
 21
123.9832902732028
 31
0.0
  0
LINE
  5
124
330
1F
100
AcDbEntity
  8
Sichtbare_Kanten_TC_020513_DIN_
  6
Continuous
 62
     7
100
AcDbLine
 10
40.76193212267174
 20
123.9832902732028
 30
0.0
 11
40.76193212267174
 21
122.5832902732028
 31
0.0
  0
LINE
  5
125
330
1F
100
AcDbEntity
  8
Sichtbare_Kanten_TC_020513_DIN_
  6
Continuous
 62
     7
100
AcDbLine
 10
56.91180468215379
 20
138.8384223618338
 30
0.0
 11
58.54035033495575
 21
133.3300511915848
 31
0.0
  0
LINE
  5
126
330
1F
100
AcDbEntity
  8
Sichtbare_Kanten_TC_020513_DIN_
  6
Continuous
 62
     7
100
AcDbLine
 10
58.54035033495575
 20
133.9217167580218
 30
0.0
 11
56.91180468215379
 21
139.4300879282708
 31
0.0
  0
LINE
  5
127
330
1F
100
AcDbEntity
  8
Sichtbare_Kanten_TC_020513_DIN_
  6
Continuous
 62
     7
100
AcDbLine
 10
125.167813352851
 20
151.3985678257958
 30
0.0
 11
61.43136072250758
 21
151.3985678257958
 31
0.0
  0
LINE
  5
128
330
1F
100
AcDbEntity
  8
Sichtbare_Kanten_TC_020513_DIN_
  6
Continuous
 62
     7
100
AcDbLine
 10
125.167813352851
 20
152.7985678257958
 30
0.0
 11
61.43136072250758
 21
152.7985678257958
 31
0.0
  0
LINE
  5
129
330
1F
100
AcDbEntity
  8
Sichtbare_Kanten_TC_020513_DIN_
  6
Continuous
 62
     7
100
AcDbLine
 10
60.47220198753388
 20
132.5782406159678
 30
0.0
 11
126.1269720878249
 21
132.5782406159678
 31
0.0
  0
LINE
  5
12A
330
1F
100
AcDbEntity
  8
Sichtbare_Kanten_TC_020513_DIN_
  6
Continuous
 62
     7
100
AcDbLine
 10
126.1269720878249
 20
131.9865750495308
 30
0.0
 11
60.47220198753388
 21
131.9865750495308
 31
0.0
  0
LINE
  5
12B
330
1F
100
AcDbEntity
  8
Sichtbare_Kanten_TC_020513_DIN_
  6
Continuous
 62
     7
100
AcDbLine
 10
56.91180468215379
 20
139.1697534507178
 30
0.0
 11
56.91180468215379
 21
138.8384223618338
 31
0.0
  0
LINE
  5
12C
330
1F
100
AcDbEntity
  8
Sichtbare_Kanten_TC_020513_DIN_
  6
Continuous
 62
     7
100
AcDbLine
 10
56.91180468215379
 20
139.4300879282708
 30
0.0
 11
56.91180468215379
 21
139.1697534507178
 31
0.0
  0
LINE
  5
12D
330
1F
100
AcDbEntity
  8
Sichtbare_Kanten_TC_020513_DIN_
  6
Continuous
 62
     7
100
AcDbLine
 10
43.79958703767926
 20
141.5819305232058
 30
0.0
 11
43.79958703767926
 21
152.0171867724018
 31
0.0
  0
LINE
  5
12E
330
1F
100
AcDbEntity
  8
Sichtbare_Kanten_TC_020513_DIN_
  6
Continuous
 62
     7
100
AcDbLine
 10
44.58358512489986
 20
152.0171867724018
 30
0.0
 11
45.19958703767929
 21
152.0171867724018
 31
0.0
  0
LINE
  5
12F
330
1F
100
AcDbEntity
  8
Sichtbare_Kanten_TC_020513_DIN_
  6
Continuous
 62
     7
100
AcDbLine
 10
43.79958703767926
 20
152.0171867724018
 30
0.0
 11
44.58358512489986
 21
152.0171867724018
 31
0.0
  0
LINE
  5
130
330
1F
100
AcDbEntity
  8
Sichtbare_Kanten_TC_020513_DIN_
  6
Continuous
 62
     7
100
AcDbLine
 10
46.59958703767927
 20
141.5819305232058
 30
0.0
 11
43.79958703767926
 21
141.5819305232058
 31
0.0
  0
LINE
  5
131
330
1F
100
AcDbEntity
  8
Sichtbare_Kanten_TC_020513_DIN_
  6
Continuous
 62
     7
100
AcDbLine
 10
44.23052650933573
 20
151.5819305232058
 30
0.0
 11
46.59958703767927
 21
151.5819305232058
 31
0.0
  0
LINE
  5
132
330
1F
100
AcDbEntity
  8
Sichtbare_Kanten_TC_020513_DIN_
  6
Continuous
 62
     7
100
AcDbLine
 10
58.17737396319706
 20
152.0145689560778
 30
0.0
 11
58.17737396319706
 21
151.3985678257958
 31
0.0
  0
LINE
  5
133
330
1F
100
AcDbEntity
  8
Sichtbare_Kanten_TC_020513_DIN_
  6
Continuous
 62
     7
100
AcDbLine
 10
58.17737396319706
 20
152.7985678257958
 30
0.0
 11
58.17737396319706
 21
152.0145689560778
 31
0.0
  0
LINE
  5
134
330
1F
100
AcDbEntity
  8
Sichtbare_Kanten_TC_020513_DIN_
  6
Continuous
 62
     7
100
AcDbLine
 10
128.421800112162
 20
152.0145689560778
 30
0.0
 11
128.421800112162
 21
152.7985678257958
 31
0.0
  0
LINE
  5
135
330
1F
100
AcDbEntity
  8
Sichtbare_Kanten_TC_020513_DIN_
  6
Continuous
 62
     7
100
AcDbLine
 10
128.421800112162
 20
151.3985678257958
 30
0.0
 11
128.421800112162
 21
152.0145689560778
 31
0.0
  0
LINE
  5
136
330
1F
100
AcDbEntity
  8
Sichtbare_Kanten_TC_020513_DIN_
  6
Continuous
 62
     7
100
AcDbLine
 10
129.687369393205
 20
139.1697534507178
 30
0.0
 11
129.687369393205
 21
139.4300879282708
 31
0.0
  0
LINE
  5
137
330
1F
100
AcDbEntity
  8
Sichtbare_Kanten_TC_020513_DIN_
  6
Continuous
 62
     7
100
AcDbLine
 10
129.687369393205
 20
138.8384223618338
 30
0.0
 11
129.687369393205
 21
139.1697534507178
 31
0.0
  0
LINE
  5
138
330
1F
100
AcDbEntity
  8
Sichtbare_Kanten_TC_020513_DIN_
  6
Continuous
 62
     7
100
AcDbLine
 10
142.015588950458
 20
152.0171867724018
 30
0.0
 11
142.799587037679
 21
152.0171867724018
 31
0.0
  0
LINE
  5
139
330
1F
100
AcDbEntity
  8
Sichtbare_Kanten_TC_020513_DIN_
  6
Continuous
 62
     7
100
AcDbLine
 10
141.399587037679
 20
152.0171867724018
 30
0.0
 11
142.015588950458
 21
152.0171867724018
 31
0.0
  0
LINE
  5
13A
330
1F
100
AcDbEntity
  8
Sichtbare_Kanten_TC_020513_DIN_
  6
Continuous
 62
     7
100
AcDbLine
 10
139.999587037679
 20
151.5819305232058
 30
0.0
 11
142.368647566023
 21
151.5819305232058
 31
0.0
  0
LINE
  5
13B
330
1F
100
AcDbEntity
  8
Sichtbare_Kanten_TC_020513_DIN_
  6
Continuous
 62
     7
100
AcDbLine
 10
142.799587037679
 20
141.5819305232058
 30
0.0
 11
139.999587037679
 21
141.5819305232058
 31
0.0
  0
LINE
  5
13C
330
1F
100
AcDbEntity
  8
Sichtbare_Kanten_TC_020513_DIN_
  6
Continuous
 62
     7
100
AcDbLine
 10
142.799587037679
 20
152.0171867724018
 30
0.0
 11
142.799587037679
 21
141.5819305232058
 31
0.0
  0
LINE
  5
13D
330
1F
100
AcDbEntity
  8
Sichtbare_Kanten_TC_020513_DIN_
  6
Continuous
 62
     7
100
AcDbLine
 10
34.79958703767926
 20
97.61094518821031
 30
0.0
 11
34.79958703767926
 21
82.22094518821041
 31
0.0
  0
LINE
  5
13E
330
1F
100
AcDbEntity
  8
Sichtbare_Kanten_TC_020513_DIN_
  6
Continuous
 62
     7
100
AcDbLine
 10
34.79958703767926
 20
97.61094518821031
 30
0.0
 11
34.79958703767926
 21
112.7509451882108
 31
0.0
  0
LINE
  5
13F
330
1F
100
AcDbEntity
  8
Sichtbare_Kanten_TC_020513_DIN_
  6
Continuous
 62
     7
100
AcDbLine
 10
46.54958703767926
 20
112.7509451882108
 30
0.0
 11
34.79958703767926
 21
112.7509451882108
 31
0.0
  0
LINE
  5
140
330
1F
100
AcDbEntity
  8
Sichtbare_Kanten_TC_020513_DIN_
  6
Continuous
 62
     7
100
AcDbLine
 10
151.799587037679
 20
78.22094518821041
 30
0.0
 11
142.799587037679
 21
78.22094518821041
 31
0.0
  0
LINE
  5
141
330
1F
100
AcDbEntity
  8
Sichtbare_Kanten_TC_020513_DIN_
  6
Continuous
 62
     7
100
AcDbLine
 10
142.799587037679
 20
78.22094518821041
 30
0.0
 11
132.799587037679
 21
78.22094518821041
 31
0.0
  0
LINE
  5
142
330
1F
100
AcDbEntity
  8
Sichtbare_Kanten_TC_020513_DIN_
  6
Continuous
 62
     7
100
AcDbLine
 10
132.799587037679
 20
78.22094518821041
 30
0.0
 11
53.79958703767926
 21
78.22094518821041
 31
0.0
  0
LINE
  5
143
330
1F
100
AcDbEntity
  8
Sichtbare_Kanten_TC_020513_DIN_
  6
Continuous
 62
     7
100
AcDbLine
 10
53.79958703767926
 20
78.22094518821041
 30
0.0
 11
43.79958703767926
 21
78.22094518821041
 31
0.0
  0
LINE
  5
144
330
1F
100
AcDbEntity
  8
Sichtbare_Kanten_TC_020513_DIN_
  6
Continuous
 62
     7
100
AcDbLine
 10
43.79958703767926
 20
78.22094518821041
 30
0.0
 11
34.79958703767926
 21
78.22094518821041
 31
0.0
  0
LINE
  5
145
330
1F
100
AcDbEntity
  8
Sichtbare_Kanten_TC_020513_DIN_
  6
Continuous
 62
     7
100
AcDbLine
 10
43.79958703767926
 20
82.22094518821041
 30
0.0
 11
34.79958703767926
 21
82.22094518821041
 31
0.0
  0
LINE
  5
146
330
1F
100
AcDbEntity
  8
Sichtbare_Kanten_TC_020513_DIN_
  6
Continuous
 62
     7
100
AcDbLine
 10
53.79958703767926
 20
82.22094518821041
 30
0.0
 11
43.79958703767926
 21
82.22094518821041
 31
0.0
  0
LINE
  5
147
330
1F
100
AcDbEntity
  8
Sichtbare_Kanten_TC_020513_DIN_
  6
Continuous
 62
     7
100
AcDbLine
 10
151.799587037679
 20
78.22094518821041
 30
0.0
 11
151.799587037679
 21
82.22094518821041
 31
0.0
  0
LINE
  5
148
330
1F
100
AcDbEntity
  8
Sichtbare_Kanten_TC_020513_DIN_
  6
Continuous
 62
     7
100
AcDbLine
 10
142.799587037679
 20
82.22094518821041
 30
0.0
 11
132.799587037679
 21
82.22094518821041
 31
0.0
  0
LINE
  5
149
330
1F
100
AcDbEntity
  8
Sichtbare_Kanten_TC_020513_DIN_
  6
Continuous
 62
     7
100
AcDbLine
 10
151.799587037679
 20
82.22094518821041
 30
0.0
 11
142.799587037679
 21
82.22094518821041
 31
0.0
  0
LINE
  5
14A
330
1F
100
AcDbEntity
  8
Sichtbare_Kanten_TC_020513_DIN_
  6
Continuous
 62
     7
100
AcDbLine
 10
142.799587037679
 20
78.22094518821041
 30
0.0
 11
142.799587037679
 21
82.22094518821041
 31
0.0
  0
LINE
  5
14B
330
1F
100
AcDbEntity
  8
Sichtbare_Kanten_TC_020513_DIN_
  6
Continuous
 62
     7
100
AcDbLine
 10
132.799587037679
 20
78.22094518821041
 30
0.0
 11
132.799587037679
 21
82.22094518821041
 31
0.0
  0
LINE
  5
14C
330
1F
100
AcDbEntity
  8
Sichtbare_Kanten_TC_020513_DIN_
  6
Continuous
 62
     7
100
AcDbLine
 10
53.79958703767926
 20
78.22094518821041
 30
0.0
 11
53.79958703767926
 21
82.22094518821041
 31
0.0
  0
LINE
  5
14D
330
1F
100
AcDbEntity
  8
Sichtbare_Kanten_TC_020513_DIN_
  6
Continuous
 62
     7
100
AcDbLine
 10
43.79958703767926
 20
78.22094518821041
 30
0.0
 11
43.79958703767926
 21
82.22094518821041
 31
0.0
  0
LINE
  5
14E
330
1F
100
AcDbEntity
  8
Sichtbare_Kanten_TC_020513_DIN_
  6
Continuous
 62
     7
100
AcDbLine
 10
34.79958703767926
 20
78.22094518821041
 30
0.0
 11
34.79958703767926
 21
82.22094518821041
 31
0.0
  0
LINE
  5
14F
330
1F
100
AcDbEntity
  8
Sichtbare_Kanten_TC_020513_DIN_
  6
Continuous
 62
     7
100
AcDbLine
 10
151.799587037679
 20
97.61094518821031
 30
0.0
 11
151.799587037679
 21
112.7509451882108
 31
0.0
  0
LINE
  5
150
330
1F
100
AcDbEntity
  8
Sichtbare_Kanten_TC_020513_DIN_
  6
Continuous
 62
     7
100
AcDbLine
 10
151.799587037679
 20
97.61094518821031
 30
0.0
 11
151.799587037679
 21
82.22094518821041
 31
0.0
  0
LINE
  5
151
330
1F
100
AcDbEntity
  8
Sichtbare_Kanten_TC_020513_DIN_
  6
Continuous
 62
     7
100
AcDbLine
 10
151.799587037679
 20
112.7509451882108
 30
0.0
 11
140.049587037679
 21
112.7509451882108
 31
0.0
  0
LINE
  5
152
330
1F
100
AcDbEntity
  8
Sichtbare_Kanten_TC_020513_DIN_
  6
Continuous
 62
     7
100
AcDbLine
 10
140.049587037679
 20
82.22094518821041
 30
0.0
 11
140.049587037679
 21
122.0043078856198
 31
0.0
  0
LINE
  5
153
330
1F
100
AcDbEntity
  8
Sichtbare_Kanten_TC_020513_DIN_
  6
Continuous
 62
     7
100
AcDbLine
 10
140.049587037679
 20
123.4043078856198
 30
0.0
 11
140.049587037679
 21
137.2209451882108
 31
0.0
  0
LINE
  5
154
330
1F
100
AcDbEntity
  8
Sichtbare_Kanten_TC_020513_DIN_
  6
Continuous
 62
     7
100
AcDbLine
 10
46.54958703767926
 20
82.22094518821041
 30
0.0
 11
46.54958703767926
 21
122.0043078856198
 31
0.0
  0
LINE
  5
155
330
1F
100
AcDbEntity
  8
Sichtbare_Kanten_TC_020513_DIN_
  6
Continuous
 62
     7
100
AcDbLine
 10
46.54958703767926
 20
123.4043078856198
 30
0.0
 11
46.54958703767926
 21
137.2209451882108
 31
0.0
  0
LINE
  5
156
330
1F
100
AcDbEntity
  8
Sichtbare_Kanten_TC_020513_DIN_
  6
Continuous
 62
     7
100
AcDbLine
 10
46.54958703767926
 20
137.2209451882108
 30
0.0
 11
52.54958703767926
 21
137.2209451882108
 31
0.0
  0
LINE
  5
157
330
1F
100
AcDbEntity
  8
Sichtbare_Kanten_TC_020513_DIN_
  6
Continuous
 62
     7
100
AcDbLine
 10
134.049587037679
 20
137.2209451882108
 30
0.0
 11
140.049587037679
 21
137.2209451882108
 31
0.0
  0
LINE
  5
158
330
1F
100
AcDbEntity
  8
Sichtbare_Kanten_TC_020513_DIN_
  6
Continuous
 62
     7
100
AcDbLine
 10
134.049587037679
 20
137.2209451882108
 30
0.0
 11
129.2091635246829
 21
137.2209451882108
 31
0.0
  0
LINE
  5
159
330
1F
100
AcDbEntity
  8
Sichtbare_Kanten_TC_020513_DIN_
  6
Continuous
 62
     7
100
AcDbLine
 10
57.39001055067587
 20
137.2209451882108
 30
0.0
 11
52.54958703767926
 21
137.2209451882108
 31
0.0
  0
LINE
  5
15A
330
1F
100
AcDbEntity
  8
Sichtbare_Kanten_TC_020513_DIN_
  6
Continuous
 62
     7
100
AcDbLine
 10
46.74958703767925
 20
141.2209451882108
 30
0.0
 11
46.74958703767925
 21
137.2209451882108
 31
0.0
  0
LINE
  5
15B
330
1F
100
AcDbEntity
  8
Sichtbare_Kanten_TC_020513_DIN_
  6
Continuous
 62
     7
100
AcDbLine
 10
52.54958703767926
 20
141.2209451882108
 30
0.0
 11
46.74958703767925
 21
141.2209451882108
 31
0.0
  0
LINE
  5
15C
330
1F
100
AcDbEntity
  8
Sichtbare_Kanten_TC_020513_DIN_
  6
Continuous
 62
     7
100
AcDbLine
 10
52.54958703767926
 20
141.2209451882108
 30
0.0
 11
56.35478181625615
 21
141.2209451882108
 31
0.0
  0
LINE
  5
15D
330
1F
100
AcDbEntity
  8
Sichtbare_Kanten_TC_020513_DIN_
  6
Continuous
 62
     7
100
AcDbLine
 10
130.244392259102
 20
141.2209451882108
 30
0.0
 11
134.049587037679
 21
141.2209451882108
 31
0.0
  0
LINE
  5
15E
330
1F
100
AcDbEntity
  8
Sichtbare_Kanten_TC_020513_DIN_
  6
Continuous
 62
     7
100
AcDbLine
 10
139.8495870376789
 20
141.2209451882108
 30
0.0
 11
139.8495870376789
 21
137.2209451882108
 31
0.0
  0
LINE
  5
15F
330
1F
100
AcDbEntity
  8
Sichtbare_Kanten_TC_020513_DIN_
  6
Continuous
 62
     7
100
AcDbLine
 10
139.8495870376789
 20
141.2209451882108
 30
0.0
 11
134.049587037679
 21
141.2209451882108
 31
0.0
  0
LINE
  5
160
330
1F
100
AcDbEntity
  8
Sichtbare_Kanten_TC_020513_DIN_
  6
Continuous
 62
     7
100
AcDbLine
 10
46.45958703767929
 20
131.7209451882108
 30
0.0
 11
46.45958703767929
 21
136.7209451882108
 31
0.0
  0
LINE
  5
161
330
1F
100
AcDbEntity
  8
Sichtbare_Kanten_TC_020513_DIN_
  6
Continuous
 62
     7
100
AcDbLine
 10
41.19958703767929
 20
130.2209451882108
 30
0.0
 11
41.19958703767929
 21
138.2209451882108
 31
0.0
  0
LINE
  5
162
330
1F
100
AcDbEntity
  8
Sichtbare_Kanten_TC_020513_DIN_
  6
Continuous
 62
     7
100
AcDbLine
 10
39.79958703767926
 20
130.2209451882108
 30
0.0
 11
39.79958703767926
 21
138.2209451882108
 31
0.0
  0
LINE
  5
163
330
1F
100
AcDbEntity
  8
Sichtbare_Kanten_TC_020513_DIN_
  6
Continuous
 62
     7
100
AcDbLine
 10
46.45958703767929
 20
135.7209451882108
 30
0.0
 11
46.54958703767915
 21
135.7209451882108
 31
0.0
  0
LINE
  5
164
330
1F
100
AcDbEntity
  8
Sichtbare_Kanten_TC_020513_DIN_
  6
Continuous
 62
     7
100
AcDbLine
 10
46.45958703767929
 20
132.7209451882108
 30
0.0
 11
46.54958703767915
 21
132.7209451882108
 31
0.0
  0
LINE
  5
165
330
1F
100
AcDbEntity
  8
Sichtbare_Kanten_TC_020513_DIN_
  6
Continuous
 62
     7
100
AcDbLine
 10
41.19958703767929
 20
136.7209451882108
 30
0.0
 11
41.79958703767926
 21
136.7209451882108
 31
0.0
  0
LINE
  5
166
330
1F
100
AcDbEntity
  8
Sichtbare_Kanten_TC_020513_DIN_
  6
Continuous
 62
     7
100
AcDbLine
 10
41.19958703767929
 20
131.7209451882108
 30
0.0
 11
41.79958703767926
 21
131.7209451882108
 31
0.0
  0
LINE
  5
167
330
1F
100
AcDbEntity
  8
Sichtbare_Kanten_TC_020513_DIN_
  6
Continuous
 62
     7
100
AcDbLine
 10
43.19958703767929
 20
136.7209451882108
 30
0.0
 11
43.79958703767926
 21
136.7209451882108
 31
0.0
  0
LINE
  5
168
330
1F
100
AcDbEntity
  8
Sichtbare_Kanten_TC_020513_DIN_
  6
Continuous
 62
     7
100
AcDbLine
 10
45.19958703767929
 20
136.7209451882108
 30
0.0
 11
46.45958703767929
 21
136.7209451882108
 31
0.0
  0
LINE
  5
169
330
1F
100
AcDbEntity
  8
Sichtbare_Kanten_TC_020513_DIN_
  6
Continuous
 62
     7
100
AcDbLine
 10
43.19958703767929
 20
131.7209451882108
 30
0.0
 11
43.79958703767926
 21
131.7209451882108
 31
0.0
  0
LINE
  5
16A
330
1F
100
AcDbEntity
  8
Sichtbare_Kanten_TC_020513_DIN_
  6
Continuous
 62
     7
100
AcDbLine
 10
45.19958703767929
 20
131.7209451882108
 30
0.0
 11
46.45958703767929
 21
131.7209451882108
 31
0.0
  0
LINE
  5
16B
330
1F
100
AcDbEntity
  8
Sichtbare_Kanten_TC_020513_DIN_
  6
Continuous
 62
     7
100
AcDbLine
 10
140.139587037679
 20
131.7209451882108
 30
0.0
 11
140.139587037679
 21
136.7209451882108
 31
0.0
  0
LINE
  5
16C
330
1F
100
AcDbEntity
  8
Sichtbare_Kanten_TC_020513_DIN_
  6
Continuous
 62
     7
100
AcDbLine
 10
145.399587037679
 20
130.2209451882108
 30
0.0
 11
145.399587037679
 21
138.2209451882108
 31
0.0
  0
LINE
  5
16D
330
1F
100
AcDbEntity
  8
Sichtbare_Kanten_TC_020513_DIN_
  6
Continuous
 62
     7
100
AcDbLine
 10
146.799587037679
 20
130.2209451882108
 30
0.0
 11
146.799587037679
 21
138.2209451882108
 31
0.0
  0
LINE
  5
16E
330
1F
100
AcDbEntity
  8
Sichtbare_Kanten_TC_020513_DIN_
  6
Continuous
 62
     7
100
AcDbLine
 10
140.049587037679
 20
135.7209451882108
 30
0.0
 11
140.139587037679
 21
135.7209451882108
 31
0.0
  0
LINE
  5
16F
330
1F
100
AcDbEntity
  8
Sichtbare_Kanten_TC_020513_DIN_
  6
Continuous
 62
     7
100
AcDbLine
 10
140.049587037679
 20
132.7209451882108
 30
0.0
 11
140.139587037679
 21
132.7209451882108
 31
0.0
  0
LINE
  5
170
330
1F
100
AcDbEntity
  8
Sichtbare_Kanten_TC_020513_DIN_
  6
Continuous
 62
     7
100
AcDbLine
 10
144.799587037679
 20
136.7209451882108
 30
0.0
 11
145.399587037679
 21
136.7209451882108
 31
0.0
  0
LINE
  5
171
330
1F
100
AcDbEntity
  8
Sichtbare_Kanten_TC_020513_DIN_
  6
Continuous
 62
     7
100
AcDbLine
 10
144.799587037679
 20
131.7209451882108
 30
0.0
 11
145.399587037679
 21
131.7209451882108
 31
0.0
  0
LINE
  5
172
330
1F
100
AcDbEntity
  8
Sichtbare_Kanten_TC_020513_DIN_
  6
Continuous
 62
     7
100
AcDbLine
 10
140.139587037679
 20
136.7209451882108
 30
0.0
 11
141.399587037679
 21
136.7209451882108
 31
0.0
  0
LINE
  5
173
330
1F
100
AcDbEntity
  8
Sichtbare_Kanten_TC_020513_DIN_
  6
Continuous
 62
     7
100
AcDbLine
 10
142.799587037679
 20
136.7209451882108
 30
0.0
 11
143.399587037679
 21
136.7209451882108
 31
0.0
  0
LINE
  5
174
330
1F
100
AcDbEntity
  8
Sichtbare_Kanten_TC_020513_DIN_
  6
Continuous
 62
     7
100
AcDbLine
 10
140.139587037679
 20
131.7209451882108
 30
0.0
 11
141.399587037679
 21
131.7209451882108
 31
0.0
  0
LINE
  5
175
330
1F
100
AcDbEntity
  8
Sichtbare_Kanten_TC_020513_DIN_
  6
Continuous
 62
     7
100
AcDbLine
 10
142.799587037679
 20
131.7209451882108
 30
0.0
 11
143.399587037679
 21
131.7209451882108
 31
0.0
  0
LINE
  5
176
330
1F
100
AcDbEntity
  8
Sichtbare_Kanten_TC_020513_DIN_
  6
Continuous
 62
     7
100
AcDbLine
 10
103.082949735089
 20
121.9841737514048
 30
0.0
 11
103.082949735089
 21
121.9043078856198
 31
0.0
  0
LINE
  5
177
330
1F
100
AcDbEntity
  8
Sichtbare_Kanten_TC_020513_DIN_
  6
Continuous
 62
     7
100
AcDbLine
 10
132.0829497350879
 20
121.9043078856198
 30
0.0
 11
132.0829497350879
 21
122.0043078856198
 31
0.0
  0
LINE
  5
178
330
1F
100
AcDbEntity
  8
Sichtbare_Kanten_TC_020513_DIN_
  6
Continuous
 62
     7
100
AcDbLine
 10
54.51622434026996
 20
122.0043078856198
 30
0.0
 11
54.51622434026996
 21
121.9043078856198
 31
0.0
  0
LINE
  5
179
330
1F
100
AcDbEntity
  8
Sichtbare_Kanten_TC_020513_DIN_
  6
Continuous
 62
     7
100
AcDbLine
 10
83.51622434026996
 20
121.9043078856198
 30
0.0
 11
83.51622434026996
 21
121.9841737514048
 31
0.0
  0
LINE
  5
17A
330
1F
100
AcDbEntity
  8
Sichtbare_Kanten_TC_020513_DIN_
  6
Continuous
 62
     7
100
AcDbLine
 10
132.0829497350879
 20
121.0666529706118
 30
0.0
 11
103.582949735089
 21
121.0666529706118
 31
0.0
  0
LINE
  5
17B
330
1F
100
AcDbEntity
  8
Sichtbare_Kanten_TC_020513_DIN_
  6
Continuous
 62
     7
100
AcDbLine
 10
103.082949735089
 20
121.5666529706118
 30
0.0
 11
103.082949735089
 21
121.9043078856198
 31
0.0
  0
LINE
  5
17C
330
1F
100
AcDbEntity
  8
Sichtbare_Kanten_TC_020513_DIN_
  6
Continuous
 62
     7
100
AcDbLine
 10
132.0829497350879
 20
121.9043078856198
 30
0.0
 11
132.0829497350879
 21
121.0666529706118
 31
0.0
  0
LINE
  5
17D
330
1F
100
AcDbEntity
  8
Sichtbare_Kanten_TC_020513_DIN_
  6
Continuous
 62
     7
100
AcDbLine
 10
143.399587037679
 20
124.8043078856198
 30
0.0
 11
143.399587037679
 21
127.2209451882108
 31
0.0
  0
LINE
  5
17E
330
1F
100
AcDbEntity
  8
Sichtbare_Kanten_TC_020513_DIN_
  6
Continuous
 62
     7
100
AcDbLine
 10
143.399587037679
 20
135.2209451882108
 30
0.0
 11
143.399587037679
 21
127.2209451882108
 31
0.0
  0
LINE
  5
17F
330
1F
100
AcDbEntity
  8
Sichtbare_Kanten_TC_020513_DIN_
  6
Continuous
 62
     7
100
AcDbLine
 10
143.399587037679
 20
135.2209451882108
 30
0.0
 11
143.399587037679
 21
135.3993574381178
 31
0.0
  0
LINE
  5
180
330
1F
100
AcDbEntity
  8
Sichtbare_Kanten_TC_020513_DIN_
  6
Continuous
 62
     7
100
AcDbLine
 10
143.399587037679
 20
140.5129209017898
 30
0.0
 11
143.399587037679
 21
135.3993574381178
 31
0.0
  0
LINE
  5
181
330
1F
100
AcDbEntity
  8
Sichtbare_Kanten_TC_020513_DIN_
  6
Continuous
 62
     7
100
AcDbLine
 10
143.399587037679
 20
141.2209451882108
 30
0.0
 11
143.399587037679
 21
140.5129209017898
 31
0.0
  0
LINE
  5
182
330
1F
100
AcDbEntity
  8
Sichtbare_Kanten_TC_020513_DIN_
  6
Continuous
 62
     7
100
AcDbLine
 10
143.399587037679
 20
122.3794367550228
 30
0.0
 11
143.399587037679
 21
119.4870047636048
 31
0.0
  0
LINE
  5
183
330
1F
100
AcDbEntity
  8
Sichtbare_Kanten_TC_020513_DIN_
  6
Continuous
 62
     7
100
AcDbLine
 10
144.799587037679
 20
124.8043078856198
 30
0.0
 11
144.799587037679
 21
119.4870047636048
 31
0.0
  0
LINE
  5
184
330
1F
100
AcDbEntity
  8
Sichtbare_Kanten_TC_020513_DIN_
  6
Continuous
 62
     7
100
AcDbLine
 10
144.799587037679
 20
141.2209451882108
 30
0.0
 11
144.799587037679
 21
140.5129209017898
 31
0.0
  0
LINE
  5
185
330
1F
100
AcDbEntity
  8
Sichtbare_Kanten_TC_020513_DIN_
  6
Continuous
 62
     7
100
AcDbLine
 10
144.799587037679
 20
140.5129209017898
 30
0.0
 11
144.799587037679
 21
135.3993574381178
 31
0.0
  0
LINE
  5
186
330
1F
100
AcDbEntity
  8
Sichtbare_Kanten_TC_020513_DIN_
  6
Continuous
 62
     7
100
AcDbLine
 10
144.799587037679
 20
135.2209451882108
 30
0.0
 11
144.799587037679
 21
135.3993574381178
 31
0.0
  0
LINE
  5
187
330
1F
100
AcDbEntity
  8
Sichtbare_Kanten_TC_020513_DIN_
  6
Continuous
 62
     7
100
AcDbLine
 10
144.799587037679
 20
135.2209451882108
 30
0.0
 11
144.799587037679
 21
127.2209451882108
 31
0.0
  0
LINE
  5
188
330
1F
100
AcDbEntity
  8
Sichtbare_Kanten_TC_020513_DIN_
  6
Continuous
 62
     7
100
AcDbLine
 10
144.799587037679
 20
124.8043078856198
 30
0.0
 11
144.799587037679
 21
127.2209451882108
 31
0.0
  0
LINE
  5
189
330
1F
100
AcDbEntity
  8
Sichtbare_Kanten_TC_020513_DIN_
  6
Continuous
 62
     7
100
AcDbLine
 10
144.799587037679
 20
135.2209451882108
 30
0.0
 11
143.399587037679
 21
135.2209451882108
 31
0.0
  0
LINE
  5
18A
330
1F
100
AcDbEntity
  8
Sichtbare_Kanten_TC_020513_DIN_
  6
Continuous
 62
     7
100
AcDbLine
 10
138.0829497350879
 20
123.4043078856198
 30
0.0
 11
141.999587037679
 21
123.4043078856198
 31
0.0
  0
LINE
  5
18B
330
1F
100
AcDbEntity
  8
Sichtbare_Kanten_TC_020513_DIN_
  6
Continuous
 62
     7
100
AcDbLine
 10
138.0829497350879
 20
122.0043078856198
 30
0.0
 11
141.999587037679
 21
122.0043078856198
 31
0.0
  0
LINE
  5
18C
330
1F
100
AcDbEntity
  8
Sichtbare_Kanten_TC_020513_DIN_
  6
Continuous
 62
     7
100
AcDbLine
 10
137.291404910157
 20
123.4043078856198
 30
0.0
 11
138.0829497350879
 21
123.4043078856198
 31
0.0
  0
LINE
  5
18D
330
1F
100
AcDbEntity
  8
Sichtbare_Kanten_TC_020513_DIN_
  6
Continuous
 62
     7
100
AcDbLine
 10
137.291404910157
 20
122.0043078856198
 30
0.0
 11
138.0829497350879
 21
122.0043078856198
 31
0.0
  0
LINE
  5
18E
330
1F
100
AcDbEntity
  8
Sichtbare_Kanten_TC_020513_DIN_
  6
Continuous
 62
     7
100
AcDbLine
 10
137.291404910157
 20
123.4043078856198
 30
0.0
 11
130.959046310701
 21
123.4043078856198
 31
0.0
  0
LINE
  5
18F
330
1F
100
AcDbEntity
  8
Sichtbare_Kanten_TC_020513_DIN_
  6
Continuous
 62
     7
100
AcDbLine
 10
137.291404910157
 20
122.0043078856198
 30
0.0
 11
130.959046310701
 21
122.0043078856198
 31
0.0
  0
LINE
  5
190
330
1F
100
AcDbEntity
  8
Sichtbare_Kanten_TC_020513_DIN_
  6
Continuous
 62
     7
100
AcDbLine
 10
143.399587037679
 20
119.4870047636048
 30
0.0
 11
144.799587037679
 21
119.4870047636048
 31
0.0
  0
LINE
  5
191
330
1F
100
AcDbEntity
  8
Sichtbare_Kanten_TC_020513_DIN_
  6
Continuous
 62
     7
100
AcDbLine
 10
143.399587037679
 20
141.2209451882108
 30
0.0
 11
144.799587037679
 21
141.2209451882108
 31
0.0
  0
LINE
  5
192
330
1F
100
AcDbEntity
  8
Sichtbare_Kanten_TC_020513_DIN_
  6
Continuous
 62
     7
100
AcDbLine
 10
130.959046310701
 20
122.0043078856198
 30
0.0
 11
55.64012776465756
 21
122.0043078856198
 31
0.0
  0
LINE
  5
193
330
1F
100
AcDbEntity
  8
Sichtbare_Kanten_TC_020513_DIN_
  6
Continuous
 62
     7
100
AcDbLine
 10
49.30776916520199
 20
122.0043078856198
 30
0.0
 11
55.64012776465756
 21
122.0043078856198
 31
0.0
  0
LINE
  5
194
330
1F
100
AcDbEntity
  8
Sichtbare_Kanten_TC_020513_DIN_
  6
Continuous
 62
     7
100
AcDbLine
 10
49.30776916520199
 20
122.0043078856198
 30
0.0
 11
48.51622434026996
 21
122.0043078856198
 31
0.0
  0
LINE
  5
195
330
1F
100
AcDbEntity
  8
Sichtbare_Kanten_TC_020513_DIN_
  6
Continuous
 62
     7
100
AcDbLine
 10
48.51622434026996
 20
122.0043078856198
 30
0.0
 11
44.59958703767927
 21
122.0043078856198
 31
0.0
  0
LINE
  5
196
330
1F
100
AcDbEntity
  8
Sichtbare_Kanten_TC_020513_DIN_
  6
Continuous
 62
     7
100
AcDbLine
 10
130.959046310701
 20
123.4043078856198
 30
0.0
 11
55.64012776465756
 21
123.4043078856198
 31
0.0
  0
LINE
  5
197
330
1F
100
AcDbEntity
  8
Sichtbare_Kanten_TC_020513_DIN_
  6
Continuous
 62
     7
100
AcDbLine
 10
54.51622434026996
 20
121.0666529706128
 30
0.0
 11
83.01622434026996
 21
121.0666529706118
 31
0.0
  0
LINE
  5
198
330
1F
100
AcDbEntity
  8
Sichtbare_Kanten_TC_020513_DIN_
  6
Continuous
 62
     7
100
AcDbLine
 10
83.51622434026996
 20
121.5666529706118
 30
0.0
 11
83.51622434026996
 21
121.9043078856198
 31
0.0
  0
LINE
  5
199
330
1F
100
AcDbEntity
  8
Sichtbare_Kanten_TC_020513_DIN_
  6
Continuous
 62
     7
100
AcDbLine
 10
54.51622434026996
 20
121.9043078856198
 30
0.0
 11
54.51622434026996
 21
121.0666529706128
 31
0.0
  0
LINE
  5
19A
330
1F
100
AcDbEntity
  8
Sichtbare_Kanten_TC_020513_DIN_
  6
Continuous
 62
     7
100
AcDbLine
 10
48.51622434026996
 20
123.4043078856198
 30
0.0
 11
44.59958703767927
 21
123.4043078856198
 31
0.0
  0
LINE
  5
19B
330
1F
100
AcDbEntity
  8
Sichtbare_Kanten_TC_020513_DIN_
  6
Continuous
 62
     7
100
AcDbLine
 10
49.30776916520199
 20
123.4043078856198
 30
0.0
 11
48.51622434026996
 21
123.4043078856198
 31
0.0
  0
LINE
  5
19C
330
1F
100
AcDbEntity
  8
Sichtbare_Kanten_TC_020513_DIN_
  6
Continuous
 62
     7
100
AcDbLine
 10
49.30776916520199
 20
123.4043078856198
 30
0.0
 11
55.64012776465756
 21
123.4043078856198
 31
0.0
  0
LINE
  5
19D
330
1F
100
AcDbEntity
  8
Sichtbare_Kanten_TC_020513_DIN_
  6
Continuous
 62
     7
100
AcDbLine
 10
43.19958703767929
 20
122.3794367550228
 30
0.0
 11
43.19958703767929
 21
119.4870047636048
 31
0.0
  0
LINE
  5
19E
330
1F
100
AcDbEntity
  8
Sichtbare_Kanten_TC_020513_DIN_
  6
Continuous
 62
     7
100
AcDbLine
 10
43.19958703767929
 20
141.2209451882108
 30
0.0
 11
43.19958703767929
 21
140.5129209017898
 31
0.0
  0
LINE
  5
19F
330
1F
100
AcDbEntity
  8
Sichtbare_Kanten_TC_020513_DIN_
  6
Continuous
 62
     7
100
AcDbLine
 10
43.19958703767929
 20
140.5129209017898
 30
0.0
 11
43.19958703767929
 21
135.3993574381178
 31
0.0
  0
LINE
  5
1A0
330
1F
100
AcDbEntity
  8
Sichtbare_Kanten_TC_020513_DIN_
  6
Continuous
 62
     7
100
AcDbLine
 10
43.19958703767929
 20
135.2209451882108
 30
0.0
 11
43.19958703767929
 21
135.3993574381178
 31
0.0
  0
LINE
  5
1A1
330
1F
100
AcDbEntity
  8
Sichtbare_Kanten_TC_020513_DIN_
  6
Continuous
 62
     7
100
AcDbLine
 10
43.19958703767929
 20
135.2209451882108
 30
0.0
 11
43.19958703767929
 21
127.2209451882108
 31
0.0
  0
LINE
  5
1A2
330
1F
100
AcDbEntity
  8
Sichtbare_Kanten_TC_020513_DIN_
  6
Continuous
 62
     7
100
AcDbLine
 10
43.19958703767929
 20
124.8043078856198
 30
0.0
 11
43.19958703767929
 21
127.2209451882108
 31
0.0
  0
LINE
  5
1A3
330
1F
100
AcDbEntity
  8
Sichtbare_Kanten_TC_020513_DIN_
  6
Continuous
 62
     7
100
AcDbLine
 10
41.79958703767926
 20
124.8043078856198
 30
0.0
 11
41.79958703767926
 21
127.2209451882108
 31
0.0
  0
LINE
  5
1A4
330
1F
100
AcDbEntity
  8
Sichtbare_Kanten_TC_020513_DIN_
  6
Continuous
 62
     7
100
AcDbLine
 10
41.79958703767926
 20
135.2209451882108
 30
0.0
 11
41.79958703767926
 21
127.2209451882108
 31
0.0
  0
LINE
  5
1A5
330
1F
100
AcDbEntity
  8
Sichtbare_Kanten_TC_020513_DIN_
  6
Continuous
 62
     7
100
AcDbLine
 10
41.79958703767926
 20
135.2209451882108
 30
0.0
 11
41.79958703767926
 21
135.3993574381178
 31
0.0
  0
LINE
  5
1A6
330
1F
100
AcDbEntity
  8
Sichtbare_Kanten_TC_020513_DIN_
  6
Continuous
 62
     7
100
AcDbLine
 10
41.79958703767926
 20
140.5129209017898
 30
0.0
 11
41.79958703767926
 21
135.3993574381178
 31
0.0
  0
LINE
  5
1A7
330
1F
100
AcDbEntity
  8
Sichtbare_Kanten_TC_020513_DIN_
  6
Continuous
 62
     7
100
AcDbLine
 10
41.79958703767926
 20
141.2209451882108
 30
0.0
 11
41.79958703767926
 21
140.5129209017898
 31
0.0
  0
LINE
  5
1A8
330
1F
100
AcDbEntity
  8
Sichtbare_Kanten_TC_020513_DIN_
  6
Continuous
 62
     7
100
AcDbLine
 10
41.79958703767926
 20
124.8043078856198
 30
0.0
 11
41.79958703767926
 21
119.4870047636048
 31
0.0
  0
LINE
  5
1A9
330
1F
100
AcDbEntity
  8
Sichtbare_Kanten_TC_020513_DIN_
  6
Continuous
 62
     7
100
AcDbLine
 10
41.79958703767926
 20
135.2209451882108
 30
0.0
 11
43.19958703767929
 21
135.2209451882108
 31
0.0
  0
LINE
  5
1AA
330
1F
100
AcDbEntity
  8
Sichtbare_Kanten_TC_020513_DIN_
  6
Continuous
 62
     7
100
AcDbLine
 10
41.79958703767926
 20
119.4870047636048
 30
0.0
 11
43.19958703767929
 21
119.4870047636048
 31
0.0
  0
LINE
  5
1AB
330
1F
100
AcDbEntity
  8
Sichtbare_Kanten_TC_020513_DIN_
  6
Continuous
 62
     7
100
AcDbLine
 10
41.79958703767926
 20
141.2209451882108
 30
0.0
 11
43.19958703767929
 21
141.2209451882108
 31
0.0
  0
LINE
  5
1AC
330
1F
100
AcDbEntity
  8
Sichtbare_Kanten_TC_020513_DIN_
  6
Continuous
 62
     7
100
AcDbLine
 10
262.3162036241549
 20
151.5819305232058
 30
0.0
 11
262.3162036241549
 21
141.5819305232058
 31
0.0
  0
LINE
  5
1AD
330
1F
100
AcDbEntity
  8
Sichtbare_Kanten_TC_020513_DIN_
  6
Continuous
 62
     7
100
AcDbLine
 10
262.3162036241549
 20
141.5819305232058
 30
0.0
 11
259.516203624155
 21
141.5819305232058
 31
0.0
  0
LINE
  5
1AE
330
1F
100
AcDbEntity
  8
Sichtbare_Kanten_TC_020513_DIN_
  6
Continuous
 62
     7
100
AcDbLine
 10
261.0087022717399
 20
151.5819305232058
 30
0.0
 11
262.3162036241549
 21
151.5819305232058
 31
0.0
  0
LINE
  5
1AF
330
1F
100
AcDbEntity
  8
Sichtbare_Kanten_TC_020513_DIN_
  6
Continuous
 62
     7
100
AcDbLine
 10
262.3162036241579
 20
141.3966352844808
 30
0.0
 11
262.3162036241549
 21
141.5819305232058
 31
0.0
  0
LINE
  5
1B0
330
1F
100
AcDbEntity
  8
Sichtbare_Kanten_TC_020513_DIN_
  6
Continuous
 62
     7
100
AcDbLine
 10
262.3162036241579
 20
140.0217534947078
 30
0.0
 11
262.3162036241579
 21
141.3966352844808
 31
0.0
  0
LINE
  5
1B1
330
1F
100
AcDbEntity
  8
Sichtbare_Kanten_TC_020513_DIN_
  6
Continuous
 62
     7
100
AcDbLine
 10
232.5495663215639
 20
124.2209451882108
 30
0.0
 11
232.5495663215639
 21
124.0832902732028
 31
0.0
  0
LINE
  5
1B2
330
1F
100
AcDbEntity
  8
Sichtbare_Kanten_TC_020513_DIN_
  6
Continuous
 62
     7
100
AcDbLine
 10
232.585706983198
 20
124.2209451882108
 30
0.0
 11
232.5495663215639
 21
124.2209451882108
 31
0.0
  0
LINE
  5
1B3
330
1F
100
AcDbEntity
  8
Sichtbare_Kanten_TC_020513_DIN_
  6
Continuous
 62
     7
100
AcDbLine
 10
243.5377120832829
 20
137.2645230595838
 30
0.0
 11
243.410611727958
 21
135.8117593505138
 31
0.0
  0
LINE
  5
1B4
330
1F
100
AcDbEntity
  8
Sichtbare_Kanten_TC_020513_DIN_
  6
Continuous
 62
     7
100
AcDbLine
 10
253.8393751493709
 20
145.6130949513028
 30
0.0
 11
243.725618260137
 21
137.6130949513028
 31
0.0
  0
LINE
  5
1B5
330
1F
100
AcDbEntity
  8
Sichtbare_Kanten_TC_020513_DIN_
  6
Continuous
 62
     7
100
AcDbLine
 10
257.3652667953779
 20
141.9615481788198
 30
0.0
 11
254.541716084657
 21
145.5311363604028
 31
0.0
  0
LINE
  5
1B6
330
1F
100
AcDbEntity
  8
Sichtbare_Kanten_TC_020513_DIN_
  6
Continuous
 62
     7
100
AcDbLine
 10
259.516203624155
 20
141.5819305232058
 30
0.0
 11
258.149566321564
 21
141.5819305232058
 31
0.0
  0
LINE
  5
1B7
330
1F
100
AcDbEntity
  8
Sichtbare_Kanten_TC_020513_DIN_
  6
Continuous
 62
     7
100
AcDbLine
 10
256.1750118479929
 20
154.0644064570008
 30
0.0
 11
259.516203624155
 21
152.0171867724018
 31
0.0
  0
LINE
  5
1B8
330
1F
100
AcDbEntity
  8
Sichtbare_Kanten_TC_020513_DIN_
  6
Continuous
 62
     7
100
AcDbLine
 10
229.8892846407359
 20
159.2209451882108
 30
0.0
 11
237.8892846407359
 21
159.2209451882108
 31
0.0
  0
LINE
  5
1B9
330
1F
100
AcDbEntity
  8
Sichtbare_Kanten_TC_020513_DIN_
  6
Continuous
 62
     7
100
AcDbLine
 10
239.4365682772329
 20
145.8941554552248
 30
0.0
 11
238.3709232687399
 21
148.7798375913378
 31
0.0
  0
LINE
  5
1BA
330
1F
100
AcDbEntity
  8
Sichtbare_Kanten_TC_020513_DIN_
  6
Continuous
 62
     7
100
AcDbLine
 10
237.149566321564
 20
142.2209451882108
 30
0.0
 11
239.3784442578999
 21
145.4360797189088
 31
0.0
  0
LINE
  5
1BB
330
1F
100
AcDbEntity
  8
Sichtbare_Kanten_TC_020513_DIN_
  6
Continuous
 62
     7
100
AcDbLine
 10
237.149566321564
 20
140.5455005085468
 30
0.0
 11
237.149566321564
 21
142.2209451882108
 31
0.0
  0
LINE
  5
1BC
330
1F
100
AcDbEntity
  8
Sichtbare_Kanten_TC_020513_DIN_
  6
Continuous
 62
     7
100
AcDbLine
 10
229.649566321564
 20
124.0832902732028
 30
0.0
 11
229.649566321564
 21
124.1223330070768
 31
0.0
  0
LINE
  5
1BD
330
1F
100
AcDbEntity
  8
Sichtbare_Kanten_TC_020513_DIN_
  6
Continuous
 62
     7
100
AcDbLine
 10
260.916203624158
 20
141.3966352844808
 30
0.0
 11
260.916203624158
 21
140.0217534947078
 31
0.0
  0
LINE
  5
1BE
330
1F
100
AcDbEntity
  8
Sichtbare_Kanten_TC_020513_DIN_
  6
Continuous
 62
     7
100
AcDbLine
 10
260.916203624158
 20
141.5819305232058
 30
0.0
 11
260.916203624158
 21
141.3966352844808
 31
0.0
  0
LINE
  5
1BF
330
1F
100
AcDbEntity
  8
Sichtbare_Kanten_TC_020513_DIN_
  6
Continuous
 62
     7
100
AcDbLine
 10
268.6504790169549
 20
152.7985678257958
 30
0.0
 11
270.132840926751
 21
152.7985678257958
 31
0.0
  0
LINE
  5
1C0
330
1F
100
AcDbEntity
  8
Sichtbare_Kanten_TC_020513_DIN_
  6
Continuous
 62
     7
100
AcDbLine
 10
270.132840926751
 20
151.3985678257958
 30
0.0
 11
268.6504790169549
 21
151.3985678257958
 31
0.0
  0
LINE
  5
1C1
330
1F
100
AcDbEntity
  8
Sichtbare_Kanten_TC_020513_DIN_
  6
Continuous
 62
     7
100
AcDbLine
 10
270.132840926751
 20
151.3985678257958
 30
0.0
 11
270.132840926751
 21
152.7985678257958
 31
0.0
  0
LINE
  5
1C2
330
1F
100
AcDbEntity
  8
Sichtbare_Kanten_TC_020513_DIN_
  6
Continuous
 62
     7
100
AcDbLine
 10
263.7162036241589
 20
151.3985678257958
 30
0.0
 11
268.6504790169549
 21
151.3985678257958
 31
0.0
  0
LINE
  5
1C3
330
1F
100
AcDbEntity
  8
Sichtbare_Kanten_TC_020513_DIN_
  6
Continuous
 62
     7
100
AcDbLine
 10
268.6504790169549
 20
152.7985678257958
 30
0.0
 11
263.7162036241589
 21
152.7985678257958
 31
0.0
  0
LINE
  5
1C4
330
1F
100
AcDbEntity
  8
Sichtbare_Kanten_TC_020513_DIN_
  6
Continuous
 62
     7
100
AcDbLine
 10
232.5495663215629
 20
123.9832902732028
 30
0.0
 11
232.5495663215629
 21
122.5832902732028
 31
0.0
  0
LINE
  5
1C5
330
1F
100
AcDbEntity
  8
Sichtbare_Kanten_TC_020513_DIN_
  6
Continuous
 62
     7
100
AcDbLine
 10
232.5495663215629
 20
122.5832902732028
 30
0.0
 11
232.0495663215629
 21
122.5832902732028
 31
0.0
  0
LINE
  5
1C6
330
1F
100
AcDbEntity
  8
Sichtbare_Kanten_TC_020513_DIN_
  6
Continuous
 62
     7
100
AcDbLine
 10
232.0495663215629
 20
123.9832902732028
 30
0.0
 11
232.5495663215629
 21
123.9832902732028
 31
0.0
  0
LINE
  5
1C7
330
1F
100
AcDbEntity
  8
Sichtbare_Kanten_TC_020513_DIN_
  6
Continuous
 62
     7
100
AcDbLine
 10
230.1495663215629
 20
122.5832902732028
 30
0.0
 11
232.0495663215629
 21
122.5832902732028
 31
0.0
  0
LINE
  5
1C8
330
1F
100
AcDbEntity
  8
Sichtbare_Kanten_TC_020513_DIN_
  6
Continuous
 62
     7
100
AcDbLine
 10
232.0495663215629
 20
123.9832902732028
 30
0.0
 11
230.1495663215629
 21
123.9832902732028
 31
0.0
  0
LINE
  5
1C9
330
1F
100
AcDbEntity
  8
Sichtbare_Kanten_TC_020513_DIN_
  6
Continuous
 62
     7
100
AcDbLine
 10
230.1495663215629
 20
122.5832902732028
 30
0.0
 11
229.6495663215629
 21
122.5832902732028
 31
0.0
  0
LINE
  5
1CA
330
1F
100
AcDbEntity
  8
Sichtbare_Kanten_TC_020513_DIN_
  6
Continuous
 62
     7
100
AcDbLine
 10
229.6495663215629
 20
123.9832902732028
 30
0.0
 11
230.1495663215629
 21
123.9832902732028
 31
0.0
  0
LINE
  5
1CB
330
1F
100
AcDbEntity
  8
Sichtbare_Kanten_TC_020513_DIN_
  6
Continuous
 62
     7
100
AcDbLine
 10
229.6495663215629
 20
123.9832902732028
 30
0.0
 11
229.6495663215629
 21
122.5832902732028
 31
0.0
  0
LINE
  5
1CC
330
1F
100
AcDbEntity
  8
Sichtbare_Kanten_TC_020513_DIN_
  6
Continuous
 62
     7
100
AcDbLine
 10
264.3736106946919
 20
131.9865750495308
 30
0.0
 11
263.7471374811039
 21
133.3300511915848
 31
0.0
  0
LINE
  5
1CD
330
1F
100
AcDbEntity
  8
Sichtbare_Kanten_TC_020513_DIN_
  6
Continuous
 62
     7
100
AcDbLine
 10
265.6424415965439
 20
132.5782406159678
 30
0.0
 11
264.3736106946919
 21
131.9865750495308
 31
0.0
  0
LINE
  5
1CE
330
1F
100
AcDbEntity
  8
Sichtbare_Kanten_TC_020513_DIN_
  6
Continuous
 62
     7
100
AcDbLine
 10
265.015968382955
 20
133.9217167580218
 30
0.0
 11
265.6424415965439
 21
132.5782406159678
 31
0.0
  0
LINE
  5
1CF
330
1F
100
AcDbEntity
  8
Sichtbare_Kanten_TC_020513_DIN_
  6
Continuous
 62
     7
100
AcDbLine
 10
261.178541820456
 20
138.8384223618338
 30
0.0
 11
263.7471374811039
 21
133.3300511915848
 31
0.0
  0
LINE
  5
1D0
330
1F
100
AcDbEntity
  8
Sichtbare_Kanten_TC_020513_DIN_
  6
Continuous
 62
     7
100
AcDbLine
 10
265.015968382955
 20
133.9217167580218
 30
0.0
 11
262.4473727223069
 21
139.4300879282708
 31
0.0
  0
LINE
  5
1D1
330
1F
100
AcDbEntity
  8
Sichtbare_Kanten_TC_020513_DIN_
  6
Continuous
 62
     7
100
AcDbLine
 10
261.889083633547
 20
139.1697534507178
 30
0.0
 11
261.178541820456
 21
138.8384223618338
 31
0.0
  0
LINE
  5
1D2
330
1F
100
AcDbEntity
  8
Sichtbare_Kanten_TC_020513_DIN_
  6
Continuous
 62
     7
100
AcDbLine
 10
262.4473727223069
 20
139.4300879282708
 30
0.0
 11
261.889083633547
 21
139.1697534507178
 31
0.0
  0
LINE
  5
1D3
330
1F
100
AcDbEntity
  8
Sichtbare_Kanten_TC_020513_DIN_
  6
Continuous
 62
     7
100
AcDbLine
 10
261.7001997712159
 20
140.0217534947078
 30
0.0
 11
262.3162036241579
 21
140.0217534947078
 31
0.0
  0
LINE
  5
1D4
330
1F
100
AcDbEntity
  8
Sichtbare_Kanten_TC_020513_DIN_
  6
Continuous
 62
     7
100
AcDbLine
 10
260.916203624158
 20
140.0217534947078
 30
0.0
 11
261.7001997712159
 21
140.0217534947078
 31
0.0
  0
LINE
  5
1D5
330
1F
100
AcDbEntity
  8
Sichtbare_Kanten_TC_020513_DIN_
  6
Continuous
 62
     7
100
AcDbLine
 10
229.649566321564
 20
124.0832902732028
 30
0.0
 11
229.6495663215629
 21
123.9832902732028
 31
0.0
  0
LINE
  5
1D6
330
1F
100
AcDbEntity
  8
Sichtbare_Kanten_TC_020513_DIN_
  6
Continuous
 62
     7
100
AcDbLine
 10
232.5495663215629
 20
123.9832902732028
 30
0.0
 11
232.5495663215639
 21
124.0832902732028
 31
0.0
  0
LINE
  5
1D7
330
1F
100
AcDbEntity
  8
Sichtbare_Kanten_TC_020513_DIN_
  6
Continuous
 62
     7
100
AcDbLine
 10
263.7162036241589
 20
152.0145689560778
 30
0.0
 11
263.7162036241589
 21
151.3985678257958
 31
0.0
  0
LINE
  5
1D8
330
1F
100
AcDbEntity
  8
Sichtbare_Kanten_TC_020513_DIN_
  6
Continuous
 62
     7
100
AcDbLine
 10
263.7162036241589
 20
152.7985678257958
 30
0.0
 11
263.7162036241589
 21
152.0145689560778
 31
0.0
  0
LINE
  5
1D9
330
1F
100
AcDbEntity
  8
Sichtbare_Kanten_TC_020513_DIN_
  6
Continuous
 62
     7
100
AcDbLine
 10
249.289566321561
 20
97.61094518821031
 30
0.0
 11
249.289566321561
 21
82.22094518821041
 31
0.0
  0
LINE
  5
1DA
330
1F
100
AcDbEntity
  8
Sichtbare_Kanten_TC_020513_DIN_
  6
Continuous
 62
     7
100
AcDbLine
 10
219.0095663215609
 20
82.22094518821041
 30
0.0
 11
219.0095663215609
 21
97.61094518821031
 31
0.0
  0
LINE
  5
1DB
330
1F
100
AcDbEntity
  8
Sichtbare_Kanten_TC_020513_DIN_
  6
Continuous
 62
     7
100
AcDbLine
 10
262.649566321561
 20
78.22094518821041
 30
0.0
 11
205.649566321561
 21
78.22094518821041
 31
0.0
  0
LINE
  5
1DC
330
1F
100
AcDbEntity
  8
Sichtbare_Kanten_TC_020513_DIN_
  6
Continuous
 62
     7
100
AcDbLine
 10
219.0095663215609
 20
82.22094518821041
 30
0.0
 11
205.649566321561
 21
82.22094518821041
 31
0.0
  0
LINE
  5
1DD
330
1F
100
AcDbEntity
  8
Sichtbare_Kanten_TC_020513_DIN_
  6
Continuous
 62
     7
100
AcDbLine
 10
262.649566321561
 20
82.22094518821041
 30
0.0
 11
249.289566321561
 21
82.22094518821041
 31
0.0
  0
LINE
  5
1DE
330
1F
100
AcDbEntity
  8
Sichtbare_Kanten_TC_020513_DIN_
  6
Continuous
 62
     7
100
AcDbLine
 10
205.649566321561
 20
78.22094518821041
 30
0.0
 11
205.649566321561
 21
82.22094518821041
 31
0.0
  0
LINE
  5
1DF
330
1F
100
AcDbEntity
  8
Sichtbare_Kanten_TC_020513_DIN_
  6
Continuous
 62
     7
100
AcDbLine
 10
262.649566321561
 20
78.22094518821041
 30
0.0
 11
262.649566321561
 21
82.22094518821041
 31
0.0
  0
LINE
  5
1E0
330
1F
100
AcDbEntity
  8
Sichtbare_Kanten_TC_020513_DIN_
  6
Continuous
 62
     7
100
AcDbLine
 10
212.0995663215659
 20
141.2209451882108
 30
0.0
 11
212.0995663215659
 21
137.2209451882108
 31
0.0
  0
LINE
  5
1E1
330
1F
100
AcDbEntity
  8
Sichtbare_Kanten_TC_020513_DIN_
  6
Continuous
 62
     7
100
AcDbLine
 10
217.899566321565
 20
141.2209451882108
 30
0.0
 11
212.0995663215659
 21
141.2209451882108
 31
0.0
  0
LINE
  5
1E2
330
1F
100
AcDbEntity
  8
Sichtbare_Kanten_TC_020513_DIN_
  6
Continuous
 62
     7
100
AcDbLine
 10
217.899566321565
 20
141.2209451882108
 30
0.0
 11
237.149566321565
 21
141.2209451882108
 31
0.0
  0
LINE
  5
1E3
330
1F
100
AcDbEntity
  8
Sichtbare_Kanten_TC_020513_DIN_
  6
Continuous
 62
     7
100
AcDbLine
 10
248.2867332837429
 20
141.2209451882108
 30
0.0
 11
250.399566321565
 21
141.2209451882108
 31
0.0
  0
LINE
  5
1E4
330
1F
100
AcDbEntity
  8
Sichtbare_Kanten_TC_020513_DIN_
  6
Continuous
 62
     7
100
AcDbLine
 10
256.199566321566
 20
141.2209451882108
 30
0.0
 11
256.199566321566
 21
137.2209451882108
 31
0.0
  0
LINE
  5
1E5
330
1F
100
AcDbEntity
  8
Sichtbare_Kanten_TC_020513_DIN_
  6
Continuous
 62
     7
100
AcDbLine
 10
256.199566321566
 20
141.2209451882108
 30
0.0
 11
250.399566321565
 21
141.2209451882108
 31
0.0
  0
LINE
  5
1E6
330
1F
100
AcDbEntity
  8
Sichtbare_Kanten_TC_020513_DIN_
  6
Continuous
 62
     7
100
AcDbLine
 10
211.899566321566
 20
137.2209451882108
 30
0.0
 11
217.899566321565
 21
137.2209451882108
 31
0.0
  0
LINE
  5
1E7
330
1F
100
AcDbEntity
  8
Sichtbare_Kanten_TC_020513_DIN_
  6
Continuous
 62
     7
100
AcDbLine
 10
211.899566321566
 20
82.22094518821041
 30
0.0
 11
211.899566321566
 21
137.2209451882108
 31
0.0
  0
LINE
  5
1E8
330
1F
100
AcDbEntity
  8
Sichtbare_Kanten_TC_020513_DIN_
  6
Continuous
 62
     7
100
AcDbLine
 10
250.399566321565
 20
137.2209451882108
 30
0.0
 11
243.533899513558
 21
137.2209451882108
 31
0.0
  0
LINE
  5
1E9
330
1F
100
AcDbEntity
  8
Sichtbare_Kanten_TC_020513_DIN_
  6
Continuous
 62
     7
100
AcDbLine
 10
227.825011001228
 20
137.2209451882108
 30
0.0
 11
217.899566321565
 21
137.2209451882108
 31
0.0
  0
LINE
  5
1EA
330
1F
100
AcDbEntity
  8
Sichtbare_Kanten_TC_020513_DIN_
  6
Continuous
 62
     7
100
AcDbLine
 10
256.399566321566
 20
82.22094518821041
 30
0.0
 11
256.399566321566
 21
128.2209451882108
 31
0.0
  0
LINE
  5
1EB
330
1F
100
AcDbEntity
  8
Sichtbare_Kanten_TC_020513_DIN_
  6
Continuous
 62
     7
100
AcDbLine
 10
256.399566321566
 20
135.2209451882108
 30
0.0
 11
256.399566321566
 21
137.2209451882108
 31
0.0
  0
LINE
  5
1EC
330
1F
100
AcDbEntity
  8
Sichtbare_Kanten_TC_020513_DIN_
  6
Continuous
 62
     7
100
AcDbLine
 10
250.399566321565
 20
137.2209451882108
 30
0.0
 11
256.399566321566
 21
137.2209451882108
 31
0.0
  0
LINE
  5
1ED
330
1F
100
AcDbEntity
  8
Sichtbare_Kanten_TC_020513_DIN_
  6
Continuous
 62
     7
100
AcDbLine
 10
265.338455210454
 20
122.0043078856198
 30
0.0
 11
268.449566321567
 21
122.0043078856198
 31
0.0
  0
LINE
  5
1EE
330
1F
100
AcDbEntity
  8
Sichtbare_Kanten_TC_020513_DIN_
  6
Continuous
 62
     7
100
AcDbLine
 10
265.338455210454
 20
122.0043078856198
 30
0.0
 11
264.949566321565
 21
122.0043078856198
 31
0.0
  0
LINE
  5
1EF
330
1F
100
AcDbEntity
  8
Sichtbare_Kanten_TC_020513_DIN_
  6
Continuous
 62
     7
100
AcDbLine
 10
257.949566321567
 20
122.0043078856198
 30
0.0
 11
257.9119114065589
 21
122.0043078856198
 31
0.0
  0
LINE
  5
1F0
330
1F
100
AcDbEntity
  8
Sichtbare_Kanten_TC_020513_DIN_
  6
Continuous
 62
     7
100
AcDbLine
 10
268.449566321567
 20
122.0043078856198
 30
0.0
 11
268.449566321567
 21
123.4043078856198
 31
0.0
  0
LINE
  5
1F1
330
1F
100
AcDbEntity
  8
Sichtbare_Kanten_TC_020513_DIN_
  6
Continuous
 62
     7
100
AcDbLine
 10
257.8119114065599
 20
121.0666529706128
 30
0.0
 11
256.4119114065589
 21
121.0666529706128
 31
0.0
  0
LINE
  5
1F2
330
1F
100
AcDbEntity
  8
Sichtbare_Kanten_TC_020513_DIN_
  6
Continuous
 62
     7
100
AcDbLine
 10
256.4119114065589
 20
121.9043078856198
 30
0.0
 11
256.4119114065589
 21
121.0666529706128
 31
0.0
  0
LINE
  5
1F3
330
1F
100
AcDbEntity
  8
Sichtbare_Kanten_TC_020513_DIN_
  6
Continuous
 62
     7
100
AcDbLine
 10
257.8119114065599
 20
121.9043078856198
 30
0.0
 11
257.8119114065599
 21
121.0666529706128
 31
0.0
  0
LINE
  5
1F4
330
1F
100
AcDbEntity
  8
Sichtbare_Kanten_TC_020513_DIN_
  6
Continuous
 62
     7
100
AcDbLine
 10
257.949566321567
 20
123.4043078856198
 30
0.0
 11
257.9119114065589
 21
123.4043078856198
 31
0.0
  0
LINE
  5
1F5
330
1F
100
AcDbEntity
  8
Sichtbare_Kanten_TC_020513_DIN_
  6
Continuous
 62
     7
100
AcDbLine
 10
265.338455210454
 20
123.4043078856198
 30
0.0
 11
264.949566321565
 21
123.4043078856198
 31
0.0
  0
LINE
  5
1F6
330
1F
100
AcDbEntity
  8
Sichtbare_Kanten_TC_020513_DIN_
  6
Continuous
 62
     7
100
AcDbLine
 10
265.338455210454
 20
123.4043078856198
 30
0.0
 11
268.449566321567
 21
123.4043078856198
 31
0.0
  0
LINE
  5
1F7
330
1F
100
AcDbEntity
  8
Sichtbare_Kanten_TC_020513_DIN_
  6
Continuous
 62
     7
100
AcDbLine
 10
264.949566321563
 20
124.8043078856198
 30
0.0
 11
264.949566321563
 21
127.2209451882108
 31
0.0
  0
LINE
  5
1F8
330
1F
100
AcDbEntity
  8
Sichtbare_Kanten_TC_020513_DIN_
  6
Continuous
 62
     7
100
AcDbLine
 10
256.949566321563
 20
135.2209451882108
 30
0.0
 11
244.1495663215629
 21
135.2209451882108
 31
0.0
  0
LINE
  5
1F9
330
1F
100
AcDbEntity
  8
Sichtbare_Kanten_TC_020513_DIN_
  6
Continuous
 62
     7
100
AcDbLine
 10
227.1495663215629
 20
134.2209451882108
 30
0.0
 11
227.1495663215629
 21
120.7209451882108
 31
0.0
  0
LINE
  5
1FA
330
1F
100
AcDbEntity
  8
Sichtbare_Kanten_TC_020513_DIN_
  6
Continuous
 62
     7
100
AcDbLine
 10
246.1495663215629
 20
128.2209451882108
 30
0.0
 11
256.949566321563
 21
128.2209451882108
 31
0.0
  0
LINE
  5
1FB
330
1F
100
AcDbEntity
  8
Sichtbare_Kanten_TC_020513_DIN_
  6
Continuous
 62
     7
100
AcDbLine
 10
257.949566321563
 20
127.2209451882108
 30
0.0
 11
257.949566321563
 21
124.8043078856198
 31
0.0
  0
LINE
  5
1FC
330
1F
100
AcDbEntity
  8
Sichtbare_Kanten_TC_020513_DIN_
  6
Continuous
 62
     7
100
AcDbLine
 10
264.949566321565
 20
122.0043078856198
 30
0.0
 11
257.949566321567
 21
122.0043078856198
 31
0.0
  0
LINE
  5
1FD
330
1F
100
AcDbEntity
  8
Sichtbare_Kanten_TC_020513_DIN_
  6
Continuous
 62
     7
100
AcDbLine
 10
257.949566321567
 20
122.0043078856198
 30
0.0
 11
257.949566321563
 21
124.8043078856198
 31
0.0
  0
LINE
  5
1FE
330
1F
100
AcDbEntity
  8
Sichtbare_Kanten_TC_020513_DIN_
  6
Continuous
 62
     7
100
AcDbLine
 10
264.949566321563
 20
124.8043078856198
 30
0.0
 11
264.949566321565
 21
122.0043078856198
 31
0.0
  0
LINE
  5
1FF
330
1F
100
AcDbEntity
  8
Mittelpunktmarkierung_TC_020513_DIN_
  6
CHAIN
 62
     7
100
AcDbLine
 10
251.2015663215919
 20
97.61094518821041
 30
0.0
 11
217.097566321592
 21
97.61094518821041
 31
0.0
  0
LINE
  5
200
330
1F
100
AcDbEntity
  8
Mittelpunktmarkierung_TC_020513_DIN_
  6
CHAIN
 62
     7
100
AcDbLine
 10
234.1495663215919
 20
114.6629451882108
 30
0.0
 11
234.1495663215919
 21
80.5589451882104
 31
0.0
  0
LINE
  5
201
330
1F
100
AcDbEntity
  8
Mittelpunktmarkierung_TC_020513_DIN_
  6
CHAIN
 62
     7
100
AcDbLine
 10
235.3995663215629
 20
123.2209451882108
 30
0.0
 11
226.8995663215629
 21
123.2209451882108
 31
0.0
  0
LINE
  5
202
330
1F
100
AcDbEntity
  8
Mittelpunktmarkierung_TC_020513_DIN_
  6
CHAIN
 62
     7
100
AcDbLine
 10
231.1495663215629
 20
127.4709451882108
 30
0.0
 11
231.1495663215629
 21
118.9709451882108
 31
0.0
  0
LINE
  5
203
330
1F
100
AcDbEntity
  8
Mittelpunktmarkierung_TC_020513_DIN_
  6
CHAIN
 62
     7
100
AcDbLine
 10
241.349566321563
 20
134.2209451882108
 30
0.0
 11
226.949566321563
 21
134.2209451882108
 31
0.0
  0
LINE
  5
204
330
1F
100
AcDbEntity
  8
Mittelpunktmarkierung_TC_020513_DIN_
  6
CHAIN
 62
     7
100
AcDbLine
 10
234.1495663215629
 20
141.4209451882098
 30
0.0
 11
234.1495663215629
 21
127.0209451882108
 31
0.0
  0
LINE
  5
205
330
1F
100
AcDbEntity
  8
Mittellinie_TC_020513_DIN_
  6
CHAIN
 62
     7
100
AcDbLine
 10
256.649566321563
 20
75.72094518821041
 30
0.0
 11
256.649566321563
 21
84.72094518821041
 31
0.0
  0
LINE
  5
206
330
1F
100
AcDbEntity
  8
Mittellinie_TC_020513_DIN_
  6
CHAIN
 62
     7
100
AcDbLine
 10
211.6495663215629
 20
75.72094518821041
 30
0.0
 11
211.6495663215629
 21
84.72094518821041
 31
0.0
  0
LINE
  5
207
330
1F
100
AcDbEntity
  8
Mittellinie_TC_020513_DIN_
  6
CHAIN
 62
     7
100
AcDbLine
 10
137.639587037679
 20
134.2209451882108
 30
0.0
 11
145.899587037679
 21
134.2209451882108
 31
0.0
  0
LINE
  5
208
330
1F
100
AcDbEntity
  8
Mittellinie_TC_020513_DIN_
  6
CHAIN
 62
     7
100
AcDbLine
 10
142.299587037679
 20
134.2209451882108
 30
0.0
 11
147.899587037679
 21
134.2209451882108
 31
0.0
  0
LINE
  5
209
330
1F
100
AcDbEntity
  8
Mittellinie_TC_020513_DIN_
  6
CHAIN
 62
     7
100
AcDbLine
 10
40.69958703767929
 20
134.2209451882108
 30
0.0
 11
48.95958703767929
 21
134.2209451882108
 31
0.0
  0
LINE
  5
20A
330
1F
100
AcDbEntity
  8
Mittellinie_TC_020513_DIN_
  6
CHAIN
 62
     7
100
AcDbLine
 10
38.69958703767929
 20
134.2209451882108
 30
0.0
 11
44.29958703767926
 21
134.2209451882108
 31
0.0
  0
LINE
  5
20B
330
1F
100
AcDbEntity
  8
Mittellinie_TC_020513_DIN_
  6
CHAIN
 62
     7
100
AcDbLine
 10
32.29958703767926
 20
97.61094518821041
 30
0.0
 11
50.29958703767926
 21
97.61094518821041
 31
0.0
  0
LINE
  5
20C
330
1F
100
AcDbEntity
  8
Mittellinie_TC_020513_DIN_
  6
CHAIN
 62
     7
100
AcDbLine
 10
40.79958703767926
 20
75.72094518821041
 30
0.0
 11
40.79958703767926
 21
84.72094518821041
 31
0.0
  0
LINE
  5
20D
330
1F
100
AcDbEntity
  8
Mittellinie_TC_020513_DIN_
  6
CHAIN
 62
     7
100
AcDbLine
 10
145.799587037679
 20
75.72094518821041
 30
0.0
 11
145.799587037679
 21
84.72094518821041
 31
0.0
  0
LINE
  5
20E
330
1F
100
AcDbEntity
  8
Mittellinie_TC_020513_DIN_
  6
CHAIN
 62
     7
100
AcDbLine
 10
136.299587037679
 20
97.61094518821041
 30
0.0
 11
154.299587037679
 21
97.61094518821041
 31
0.0
  0
LINE
  5
20F
330
1F
100
AcDbEntity
  8
Mittellinie_TC_020513_DIN_
  6
CHAIN
 62
     7
100
AcDbLine
 10
93.29958703767926
 20
73.9356295733381
 30
0.0
 11
93.29958703767926
 21
156.9416693267228
 31
0.0
  0
ARC
  5
4C8
330
1F
100
AcDbEntity
  8
Sichtbare_Kanten_TC_020513_DIN_
  6
Continuous
 62
     7
100
AcDbCircle
 10
96.29958703767926
 20
144.7209451882108
 30
0.0
 40
0.25
100
AcDbArc
 50
270.0
 51
90.0
  0
ARC
  5
4C9
330
1F
100
AcDbEntity
  8
Sichtbare_Kanten_TC_020513_DIN_
  6
Continuous
 62
     7
100
AcDbCircle
 10
96.29958703767926
 20
143.5675796701218
 30
0.0
 40
0.2499999999998662
100
AcDbArc
 50
299.9816393688645
 51
119.9816393688645
  0
ARC
  5
4CA
330
1F
100
AcDbEntity
  8
Sichtbare_Kanten_TC_020513_DIN_
  6
Continuous
 62
     7
100
AcDbCircle
 10
95.29958703767926
 20
142.9906565931988
 30
0.0
 40
0.25
100
AcDbArc
 50
180.0
 51
299.9816393688645
  0
ARC
  5
4CB
330
1F
100
AcDbEntity
  8
Sichtbare_Kanten_TC_020513_DIN_
  6
Continuous
 62
     7
100
AcDbCircle
 10
96.29958703767926
 20
145.8743107062988
 30
0.0
 40
0.2499999999998416
100
AcDbArc
 50
240.0183606311322
 51
60.01836063113548
  0
ARC
  5
4CC
330
1F
100
AcDbEntity
  8
Sichtbare_Kanten_TC_020513_DIN_
  6
Continuous
 62
     7
100
AcDbCircle
 10
95.29958703767926
 20
146.4512337832218
 30
0.0
 40
0.2499999999998662
100
AcDbArc
 50
60.01836063113548
 51
180.0
  0
ARC
  5
4CD
330
1F
100
AcDbEntity
  8
Sichtbare_Kanten_TC_020513_DIN_
  6
Continuous
 62
     7
100
AcDbCircle
 10
90.24958703767925
 20
143.5964258239688
 30
0.0
 40
0.25
100
AcDbArc
 50
180.0
 51
0.0
  0
ARC
  5
4CE
330
1F
100
AcDbEntity
  8
Sichtbare_Kanten_TC_020513_DIN_
  6
Continuous
 62
     7
100
AcDbCircle
 10
90.24958703767925
 20
145.8454645524528
 30
0.0
 40
0.25
100
AcDbArc
 50
0.0
 51
180.0
  0
ARC
  5
4CF
330
1F
100
AcDbEntity
  8
Sichtbare_Kanten_TC_020513_DIN_
  6
Continuous
 62
     7
100
AcDbCircle
 10
93.29958703767926
 20
141.8368104393528
 30
0.0
 40
0.2500000000002052
100
AcDbArc
 50
240.0183614849488
 51
60.01836063113548
  0
ARC
  5
4D0
330
1F
100
AcDbEntity
  8
Sichtbare_Kanten_TC_020513_DIN_
  6
Continuous
 62
     7
100
AcDbCircle
 10
91.24958703767925
 20
143.0195027470448
 30
0.0
 40
0.25
100
AcDbArc
 50
180.0
 51
240.0183606311355
  0
ARC
  5
4D1
330
1F
100
AcDbEntity
  8
Sichtbare_Kanten_TC_020513_DIN_
  6
Continuous
 62
     7
100
AcDbCircle
 10
91.24958703767925
 20
146.4223876293758
 30
0.0
 40
0.25
100
AcDbArc
 50
0.0
 51
180.0
  0
ARC
  5
4D2
330
1F
100
AcDbEntity
  8
Sichtbare_Kanten_TC_020513_DIN_
  6
Continuous
 62
     7
100
AcDbCircle
 10
94.29958703767926
 20
147.0281568601448
 30
0.0
 40
0.25
100
AcDbArc
 50
0.0
 51
144.0904238228804
  0
ARC
  5
4D3
330
1F
100
AcDbEntity
  8
Sichtbare_Kanten_TC_020513_DIN_
  6
Continuous
 62
     7
100
AcDbCircle
 10
94.29958703767926
 20
142.4137335162758
 30
0.0
 40
0.25
100
AcDbArc
 50
180.0
 51
0.0
  0
ARC
  5
4D4
330
1F
100
AcDbEntity
  8
Sichtbare_Kanten_TC_020513_DIN_
  6
Continuous
 62
     7
100
AcDbCircle
 10
92.29958703767926
 20
147.0281568601448
 30
0.0
 40
0.2500000000002353
100
AcDbArc
 50
35.90957617711965
 51
180.0
  0
ARC
  5
4D5
330
1F
100
AcDbEntity
  8
Sichtbare_Kanten_TC_020513_DIN_
  6
Continuous
 62
     7
100
AcDbCircle
 10
92.29958703767926
 20
143.5964258239688
 30
0.0
 40
0.25
100
AcDbArc
 50
180.0
 51
0.0
  0
ARC
  5
4D6
330
1F
100
AcDbEntity
  8
Sichtbare_Kanten_TC_020513_DIN_
  6
Continuous
 62
     7
100
AcDbCircle
 10
130.532949735089
 20
141.3319305232058
 30
0.0
 40
0.25
100
AcDbArc
 50
90.0
 51
165.0000000001929
  0
ARC
  5
4D7
330
1F
100
AcDbEntity
  8
Sichtbare_Kanten_TC_020513_DIN_
  6
Continuous
 62
     7
100
AcDbCircle
 10
138.032949735089
 20
150.5819305232058
 30
0.0
 40
1.0
100
AcDbArc
 50
90.0
 51
140.0000000000288
  0
ARC
  5
4D8
330
1F
100
AcDbEntity
  8
Sichtbare_Kanten_TC_020513_DIN_
  6
Continuous
 62
     7
100
AcDbCircle
 10
135.422135156424
 20
150.5819305232058
 30
0.0
 40
1.0
100
AcDbArc
 50
270.0
 51
319.9999999999798
  0
ARC
  5
4D9
330
1F
100
AcDbEntity
  8
Sichtbare_Kanten_TC_020513_DIN_
  6
Continuous
 62
     7
100
AcDbCircle
 10
130.532949735089
 20
151.0819305232058
 30
0.0
 40
1.500000000000755
100
AcDbArc
 50
226.239878970995
 51
270.0
  0
ARC
  5
4DA
330
1F
100
AcDbEntity
  8
Sichtbare_Kanten_TC_020513_DIN_
  6
Continuous
 62
     7
100
AcDbCircle
 10
56.06622434026997
 20
151.0819305232058
 30
0.0
 40
1.5
100
AcDbArc
 50
270.0
 51
313.7601210289956
  0
ARC
  5
4DB
330
1F
100
AcDbEntity
  8
Sichtbare_Kanten_TC_020513_DIN_
  6
Continuous
 62
     7
100
AcDbCircle
 10
51.17703891893456
 20
150.5819305232058
 30
0.0
 40
1.000000000000298
100
AcDbArc
 50
220.0000000000216
 51
270.0
  0
ARC
  5
4DC
330
1F
100
AcDbEntity
  8
Sichtbare_Kanten_TC_020513_DIN_
  6
Continuous
 62
     7
100
AcDbCircle
 10
48.56622434026997
 20
150.5819305232058
 30
0.0
 40
0.999999999999646
100
AcDbArc
 50
39.99999999997639
 51
90.0
  0
ARC
  5
4DD
330
1F
100
AcDbEntity
  8
Sichtbare_Kanten_TC_020513_DIN_
  6
Continuous
 62
     7
100
AcDbCircle
 10
56.06622434026997
 20
141.3319305232058
 30
0.0
 40
0.2499999999998384
100
AcDbArc
 50
14.99999999985603
 51
90.0
  0
ARC
  5
4DE
330
1F
100
AcDbEntity
  8
Sichtbare_Kanten_TC_020513_DIN_
  6
Continuous
 62
     7
100
AcDbCircle
 10
43.69958703767929
 20
124.0832902732028
 30
0.0
 40
0.1000000000000085
100
AcDbArc
 50
270.0
 51
0.0
  0
ARC
  5
4DF
330
1F
100
AcDbEntity
  8
Sichtbare_Kanten_TC_020513_DIN_
  6
Continuous
 62
     7
100
AcDbCircle
 10
43.69958703767929
 20
124.0832902732028
 30
0.0
 40
1.499999999999823
100
AcDbArc
 50
333.0858507981495
 51
0.0
  0
ARC
  5
4E0
330
1F
100
AcDbEntity
  8
Sichtbare_Kanten_TC_020513_DIN_
  6
Continuous
 62
     7
100
AcDbCircle
 10
142.899587037679
 20
124.0832902732028
 30
0.0
 40
0.0999999999999943
100
AcDbArc
 50
180.0
 51
270.0
  0
ARC
  5
4E1
330
1F
100
AcDbEntity
  8
Sichtbare_Kanten_TC_020513_DIN_
  6
Continuous
 62
     7
100
AcDbCircle
 10
142.899587037679
 20
124.0832902732028
 30
0.0
 40
1.5
100
AcDbArc
 50
180.0
 51
206.914149201852
  0
ARC
  5
4E2
330
1F
100
AcDbEntity
  8
Sichtbare_Kanten_TC_020513_DIN_
  6
Continuous
 62
     7
100
AcDbCircle
 10
40.49958703767925
 20
138.2209451882108
 30
0.0
 40
0.7000000000000384
100
AcDbArc
 50
0.0
 51
180.0
  0
ARC
  5
4E3
330
1F
100
AcDbEntity
  8
Sichtbare_Kanten_TC_020513_DIN_
  6
Continuous
 62
     7
100
AcDbCircle
 10
40.49958703767925
 20
130.2209451882108
 30
0.0
 40
0.6999999999999886
100
AcDbArc
 50
180.0
 51
0.0
  0
ARC
  5
4E4
330
1F
100
AcDbEntity
  8
Sichtbare_Kanten_TC_020513_DIN_
  6
Continuous
 62
     7
100
AcDbCircle
 10
146.0995870376789
 20
130.2209451882108
 30
0.0
 40
0.6999999999999034
100
AcDbArc
 50
180.0
 51
0.0
  0
ARC
  5
4E5
330
1F
100
AcDbEntity
  8
Sichtbare_Kanten_TC_020513_DIN_
  6
Continuous
 62
     7
100
AcDbCircle
 10
146.0995870376789
 20
138.2209451882108
 30
0.0
 40
0.7000000000001023
100
AcDbArc
 50
0.0
 51
180.0
  0
ARC
  5
4E6
330
1F
100
AcDbEntity
  8
Sichtbare_Kanten_TC_020513_DIN_
  6
Continuous
 62
     7
100
AcDbCircle
 10
103.582949735089
 20
121.5666529706118
 30
0.0
 40
0.5
100
AcDbArc
 50
180.0
 51
270.0
  0
ARC
  5
4E7
330
1F
100
AcDbEntity
  8
Sichtbare_Kanten_TC_020513_DIN_
  6
Continuous
 62
     7
100
AcDbCircle
 10
141.999587037679
 20
124.8043078856198
 30
0.0
 40
2.800000000000011
100
AcDbArc
 50
270.0
 51
0.0
  0
ARC
  5
4E8
330
1F
100
AcDbEntity
  8
Sichtbare_Kanten_TC_020513_DIN_
  6
Continuous
 62
     7
100
AcDbCircle
 10
141.999587037679
 20
124.8043078856198
 30
0.0
 40
1.400000000000006
100
AcDbArc
 50
270.0
 51
0.0
  0
ARC
  5
4E9
330
1F
100
AcDbEntity
  8
Sichtbare_Kanten_TC_020513_DIN_
  6
Continuous
 62
     7
100
AcDbCircle
 10
83.01622434026996
 20
121.5666529706118
 30
0.0
 40
0.5
100
AcDbArc
 50
270.0
 51
0.0
  0
ARC
  5
4EA
330
1F
100
AcDbEntity
  8
Sichtbare_Kanten_TC_020513_DIN_
  6
Continuous
 62
     7
100
AcDbCircle
 10
44.59958703767927
 20
124.8043078856198
 30
0.0
 40
2.800000000000011
100
AcDbArc
 50
180.0
 51
270.0
  0
ARC
  5
4EB
330
1F
100
AcDbEntity
  8
Sichtbare_Kanten_TC_020513_DIN_
  6
Continuous
 62
     7
100
AcDbCircle
 10
44.59958703767927
 20
124.8043078856198
 30
0.0
 40
1.399999999999984
100
AcDbArc
 50
180.0
 51
270.0
  0
ARC
  5
4EC
330
1F
100
AcDbEntity
  8
Sichtbare_Kanten_TC_020513_DIN_
  6
Continuous
 62
     7
100
AcDbCircle
 10
244.035809432329
 20
137.2209451882108
 30
0.0
 40
0.4999999999989482
100
AcDbArc
 50
128.3440606646389
 51
175.0000000000963
  0
ARC
  5
4ED
330
1F
100
AcDbEntity
  8
Sichtbare_Kanten_TC_020513_DIN_
  6
Continuous
 62
     7
100
AcDbCircle
 10
254.149566321564
 20
145.2209451882108
 30
0.0
 40
0.4999999999997284
100
AcDbArc
 50
38.34406066456815
 51
128.3440606647385
  0
ARC
  5
4EE
330
1F
100
AcDbEntity
  8
Sichtbare_Kanten_TC_020513_DIN_
  6
Continuous
 62
     7
100
AcDbCircle
 10
258.149566321564
 20
142.5819305232058
 30
0.0
 40
1.000000000000798
100
AcDbArc
 50
218.3440606646548
 51
270.0
  0
ARC
  5
4EF
330
1F
100
AcDbEntity
  8
Sichtbare_Kanten_TC_020513_DIN_
  6
Continuous
 62
     7
100
AcDbCircle
 10
237.8892846407359
 20
124.2209451882108
 30
0.0
 40
34.99999999999983
100
AcDbArc
 50
58.50330715785395
 51
90.0
  0
ARC
  5
4F0
330
1F
100
AcDbEntity
  8
Sichtbare_Kanten_TC_020513_DIN_
  6
Continuous
 62
     7
100
AcDbCircle
 10
229.8892846407359
 20
154.9209451882108
 30
0.0
 40
4.300000000000011
100
AcDbArc
 50
90.0
 51
298.9550243718556
  0
ARC
  5
4F1
330
1F
100
AcDbEntity
  8
Sichtbare_Kanten_TC_020513_DIN_
  6
Continuous
 62
     7
100
AcDbCircle
 10
234.149566321564
 20
147.2209451882108
 30
0.0
 40
4.499999999999681
100
AcDbArc
 50
20.26853458426848
 51
118.9550243718635
  0
ARC
  5
4F2
330
1F
100
AcDbEntity
  8
Sichtbare_Kanten_TC_020513_DIN_
  6
Continuous
 62
     7
100
AcDbCircle
 10
238.967528616436
 20
145.7209451882108
 30
0.0
 40
0.5000000000003495
100
AcDbArc
 50
325.2685345842088
 51
20.2685345842712
  0
ARC
  5
4F3
330
1F
100
AcDbEntity
  8
Sichtbare_Kanten_TC_020513_DIN_
  6
Continuous
 62
     7
100
AcDbCircle
 10
234.149566321565
 20
97.61094518821031
 30
0.0
 40
15.13999999999601
100
AcDbArc
 50
0.0
 51
180.0
  0
ARC
  5
4F4
330
1F
100
AcDbEntity
  8
Sichtbare_Kanten_TC_020513_DIN_
  6
Continuous
 62
     7
100
AcDbCircle
 10
256.949566321563
 20
127.2209451882108
 30
0.0
 40
8.0
100
AcDbArc
 50
0.0
 51
90.0
  0
ARC
  5
4F5
330
1F
100
AcDbEntity
  8
Sichtbare_Kanten_TC_020513_DIN_
  6
Continuous
 62
     7
100
AcDbCircle
 10
244.1495663215629
 20
135.7209451882108
 30
0.0
 40
0.5000000000004987
100
AcDbArc
 50
220.0290181764928
 51
270.0
  0
ARC
  5
4F6
330
1F
100
AcDbEntity
  8
Sichtbare_Kanten_TC_020513_DIN_
  6
Continuous
 62
     7
100
AcDbCircle
 10
228.452330984632
 20
122.5358474344208
 30
0.0
 40
19.99999999999927
100
AcDbArc
 50
40.02901817645404
 51
64.00779443620983
  0
ARC
  5
4F7
330
1F
100
AcDbEntity
  8
Sichtbare_Kanten_TC_020513_DIN_
  6
Continuous
 62
     7
100
AcDbCircle
 10
234.1495663215629
 20
134.2209451882108
 30
0.0
 40
7.00000000000021
100
AcDbArc
 50
64.00779443620532
 51
180.0
  0
ARC
  5
4F8
330
1F
100
AcDbEntity
  8
Sichtbare_Kanten_TC_020513_DIN_
  6
Continuous
 62
     7
100
AcDbCircle
 10
227.6495663215629
 20
120.7209451882108
 30
0.0
 40
0.5
100
AcDbArc
 50
180.0
 51
251.6923269007848
  0
ARC
  5
4F9
330
1F
100
AcDbEntity
  8
Sichtbare_Kanten_TC_020513_DIN_
  6
Continuous
 62
     7
100
AcDbCircle
 10
232.204300536279
 20
134.4870047636048
 30
0.0
 40
15.00000000000056
100
AcDbArc
 50
251.6923269007142
 51
334.1179484035667
  0
ARC
  5
4FA
330
1F
100
AcDbEntity
  8
Sichtbare_Kanten_TC_020513_DIN_
  6
Continuous
 62
     7
100
AcDbCircle
 10
246.1495663215629
 20
127.7209451882108
 30
0.0
 40
0.5
100
AcDbArc
 50
90.0
 51
154.1179484035571
  0
ARC
  5
4FB
330
1F
100
AcDbEntity
  8
Sichtbare_Kanten_TC_020513_DIN_
  6
Continuous
 62
     7
100
AcDbCircle
 10
256.949566321563
 20
127.2209451882108
 30
0.0
 40
1.0
100
AcDbArc
 50
0.0
 51
90.0
  0
ARC
  5
4FC
330
1F
100
AcDbEntity
  8
Sichtbare_Kanten_TC_020513_DIN_
  6
Continuous
 62
     7
100
AcDbCircle
 10
257.9119114065589
 20
121.9043078856198
 30
0.0
 40
0.0999999999999943
100
AcDbArc
 50
90.0
 51
180.0
  0
ARC
  5
4FD
330
1F
100
AcDbEntity
  8
Sichtbare_Kanten_TC_020513_DIN_
  6
Continuous
 62
     7
100
AcDbCircle
 10
257.9119114065589
 20
121.9043078856198
 30
0.0
 40
1.5
100
AcDbArc
 50
90.0
 51
180.0
  0
ARC
  5
4FE
330
1F
100
AcDbEntity
  8
Stich_1-Linien_TC_020513_DIN_
  6
DASHED_SPACE
 62
     7
100
AcDbCircle
 10
231.1495663215629
 20
123.2209451882108
 30
0.0
 40
48.93394997172109
100
AcDbArc
 50
0.0
 51
44.03209973312351
  0
CIRCLE
  5
4FF
330
1F
100
AcDbEntity
  8
Sichtbare_Kanten_TC_020513_DIN_
  6
Continuous
 62
     7
100
AcDbCircle
 10
234.149566321565
 20
97.61094518821031
 30
0.0
 40
10.38999999999999
  0
CIRCLE
  5
500
330
1F
100
AcDbEntity
  8
Sichtbare_Kanten_TC_020513_DIN_
  6
Continuous
 62
     7
100
AcDbCircle
 10
234.149566321565
 20
97.61094518821031
 30
0.0
 40
13.38999999999601
  0
CIRCLE
  5
501
330
1F
100
AcDbEntity
  8
Sichtbare_Kanten_TC_020513_DIN_
  6
Continuous
 62
     7
100
AcDbCircle
 10
234.1495663215629
 20
134.2209451882108
 30
0.0
 40
4.700000000000102
  0
CIRCLE
  5
502
330
1F
100
AcDbEntity
  8
Sichtbare_Kanten_TC_020513_DIN_
  6
Continuous
 62
     7
100
AcDbCircle
 10
231.1495663215629
 20
123.2209451882108
 30
0.0
 40
1.75
  0
SPLINE
  5
503
330
1F
100
AcDbEntity
  8
Sichtbare_Kanten_TC_020513_DIN_
  6
Continuous
 62
     7
100
AcDbSpline
210
0.0
220
0.0
230
1.0
 70
     8
 71
     3
 72
    19
 73
    15
 74
    13
 42
0.000000001
 43
0.0000000001
 44
0.00000001
 40
0.0
 40
0.0
 40
0.0
 40
0.0
 40
0.3474606674142227
 40
0.6949175350292425
 40
0.8665696488942443
 40
1.038221191655174
 40
1.207484861389562
 40
1.376745209809356
 40
1.54325185585329
 40
1.709751057159927
 40
1.873443934533339
 40
2.037147336109252
 40
2.278188137687536
 40
2.518986528946292
 40
2.518986528946292
 40
2.518986528946292
 40
2.518986528946292
 10
126.1269720878249
 20
132.5782406159678
 30
0.0
 10
126.2429038577375
 20
132.5834975783598
 30
0.0
 10
126.474766128586
 20
132.5940114603287
 30
0.0
 10
126.7568379347567
 20
132.6650847780413
 30
0.0
 10
126.9726220365906
 20
132.7456517538596
 30
0.0
 10
127.1273587849042
 20
132.8186455671043
 30
0.0
 10
127.2748355737624
 20
132.9036917371507
 30
0.0
 10
127.4132636800824
 20
132.9998514640168
 30
0.0
 10
127.5422739679144
 20
133.1068831583856
 30
0.0
 10
127.6601952580027
 20
133.2233904699601
 30
0.0
 10
127.7668589835445
 20
133.3491269350959
 30
0.0
 10
127.8757341538739
 20
133.5043630935451
 30
0.0
 10
127.9808678701454
 20
133.6933855487955
 30
0.0
 10
128.0328471716555
 20
133.8456318846443
 30
0.0
 10
128.058823740403
 20
133.9217167580218
 30
0.0
 11
126.1269720878249
 21
132.5782406159678
 31
0.0
 11
126.4733514071146
 21
132.6056319022074
 31
0.0
 11
126.8110123744758
 21
132.6875547107633
 31
0.0
 11
126.9717209936239
 21
132.7478638151643
 31
0.0
 11
127.1269720878244
 21
132.8210850555984
 31
0.0
 11
127.2735693957838
 21
132.9056984078435
 31
0.0
 11
127.4125473071977
 21
133.0023121020117
 31
0.0
 11
127.5406568784473
 21
133.108671874344
 31
0.0
 11
127.6590609740628
 21
133.2257293579026
 31
0.0
 11
127.7648572793975
 21
133.3506393262754
 31
0.0
 11
127.8590228953933
 21
133.4845484030053
 31
0.0
 11
127.9742773131205
 21
133.6962488713207
 31
0.0
 11
128.058823740403
 21
133.9217167580218
 31
0.0
  0
SPLINE
  5
504
330
1F
100
AcDbEntity
  8
Sichtbare_Kanten_TC_020513_DIN_
  6
Continuous
 62
     7
100
AcDbSpline
210
0.0
220
0.0
230
1.0
 70
     8
 71
     3
 72
    19
 73
    15
 74
    13
 42
0.000000001
 43
0.0000000001
 44
0.00000001
 40
0.0
 40
0.0
 40
0.0
 40
0.0
 40
0.3474606674142205
 40
0.6949175350292403
 40
0.866569648894242
 40
1.038221191655172
 40
1.207484861389574
 40
1.376745209809352
 40
1.543251855853268
 40
1.709751057159824
 40
1.87344393453302
 40
2.037147336108816
 40
2.278188137687325
 40
2.518986528946373
 40
2.518986528946373
 40
2.518986528946373
 40
2.518986528946373
 10
126.1269720878249
 20
131.9865750495308
 30
0.0
 10
126.2429038577375
 20
131.9918320119229
 30
0.0
 10
126.474766128586
 20
132.0023458938917
 30
0.0
 10
126.7568379347567
 20
132.0734192116043
 30
0.0
 10
126.9726220365906
 20
132.1539861874226
 30
0.0
 10
127.1273587849042
 20
132.2269800006673
 30
0.0
 10
127.2748355737624
 20
132.3120261707137
 30
0.0
 10
127.4132636800824
 20
132.4081858975798
 30
0.0
 10
127.5422739679143
 20
132.5152175919485
 30
0.0
 10
127.6601952580027
 20
132.6317249035229
 30
0.0
 10
127.7668589835446
 20
132.7574613686585
 30
0.0
 10
127.875734153874
 20
132.9126975271076
 30
0.0
 10
127.9808678701454
 20
133.1017199823582
 30
0.0
 10
128.0328471716555
 20
133.2539663182072
 30
0.0
 10
128.058823740403
 20
133.3300511915848
 30
0.0
 11
126.1269720878249
 21
131.9865750495308
 31
0.0
 11
126.4733514071146
 21
132.0139663357704
 31
0.0
 11
126.8110123744758
 21
132.0958891443263
 31
0.0
 11
126.9717209936239
 21
132.1561982487273
 31
0.0
 11
127.1269720878244
 21
132.2294194891614
 31
0.0
 11
127.2735693957838
 21
132.3140328414065
 31
0.0
 11
127.4125473071977
 21
132.4106465355747
 31
0.0
 11
127.5406568784473
 21
132.517006307907
 31
0.0
 11
127.6590609740628
 21
132.6340637914655
 31
0.0
 11
127.7648572793975
 21
132.7589737598379
 31
0.0
 11
127.8590228953933
 21
132.8928828365677
 31
0.0
 11
127.9742773131205
 21
133.1045833048834
 31
0.0
 11
128.058823740403
 21
133.3300511915848
 31
0.0
  0
SPLINE
  5
505
330
1F
100
AcDbEntity
  8
Sichtbare_Kanten_TC_020513_DIN_
  6
Continuous
 62
     7
100
AcDbSpline
210
0.0
220
0.0
230
1.0
 70
     8
 71
     3
 72
    19
 73
    15
 74
    13
 42
0.000000001
 43
0.0000000001
 44
0.00000001
 40
0.0
 40
0.0
 40
0.0
 40
0.0
 40
0.322186220537038
 40
0.64438626183415
 40
0.8094705328393684
 40
0.9745562229277518
 40
1.142463280811686
 40
1.310374909566894
 40
1.480895931773714
 40
1.651417687594006
 40
1.824033462668547
 40
1.996661195040611
 40
2.257865073019142
 40
2.518894987889039
 40
2.518894987889039
 40
2.518894987889039
 40
2.518894987889039
 10
58.54035033495575
 20
133.3300511915848
 30
0.0
 10
58.57656399783347
 20
133.2286168709462
 30
0.0
 10
58.64899289055657
 20
133.025743883911
 30
0.0
 10
58.79838453698994
 20
132.7980534404027
 30
0.0
 10
58.9387382138266
 20
132.6318772018438
 30
0.0
 10
59.057085384882
 20
132.5150603670302
 30
0.0
 10
59.18573415467471
 20
132.4083263243808
 30
0.0
 10
59.32451416700235
 20
132.3119133374503
 30
0.0
 10
59.47164831996209
 20
132.2270541431962
 30
0.0
 10
59.62669873375603
 20
132.1539923407707
 30
0.0
 10
59.78785567180827
 20
132.0934904398006
 30
0.0
 10
59.98242924709744
 20
132.038234649193
 30
0.0
 10
60.21096952148568
 20
131.9954911571313
 30
0.0
 10
60.38514383849834
 20
131.9895464204209
 30
0.0
 10
60.47220198753388
 20
131.9865750495308
 30
0.0
 11
58.54035033495575
 21
133.3300511915848
 31
0.0
 11
58.66061474615199
 21
133.0311524908705
 31
0.0
 11
58.83389789895588
 21
132.7595170421532
 31
0.0
 11
58.94059211170792
 21
132.6335441807792
 31
0.0
 11
59.05798842516075
 21
132.5174778594933
 31
0.0
 11
59.1871813052681
 21
132.4102305747784
 31
0.0
 11
59.32504911483173
 21
132.3143828705926
 31
0.0
 11
59.47273636640045
 21
132.2291426513981
 31
0.0
 11
59.62696546405246
 21
132.156403013918
 31
0.0
 11
59.78857515526966
 21
132.0957522619105
 31
0.0
 11
59.95456389732882
 21
132.0483384274736
 31
0.0
 11
60.21162998442759
 21
132.0020297541282
 31
0.0
 11
60.47220198753388
 21
131.9865750495308
 31
0.0
  0
SPLINE
  5
506
330
1F
100
AcDbEntity
  8
Sichtbare_Kanten_TC_020513_DIN_
  6
Continuous
 62
     7
100
AcDbSpline
210
0.0
220
0.0
230
1.0
 70
     8
 71
     3
 72
    19
 73
    15
 74
    13
 42
0.000000001
 43
0.0000000001
 44
0.00000001
 40
0.0
 40
0.0
 40
0.0
 40
0.0
 40
0.3221862205370088
 40
0.6443862618341437
 40
0.8094705328393679
 40
0.9745562229277811
 40
1.142463280811708
 40
1.310374909566915
 40
1.480895931773724
 40
1.651417687594022
 40
1.824033462668577
 40
1.996661195040654
 40
2.257865073019184
 40
2.518894987889055
 40
2.518894987889055
 40
2.518894987889055
 40
2.518894987889055
 10
58.54035033495575
 20
133.9217167580218
 30
0.0
 10
58.57656399783347
 20
133.8202824373833
 30
0.0
 10
58.64899289055647
 20
133.617409450348
 30
0.0
 10
58.7983845369899
 20
133.3897190068397
 30
0.0
 10
58.93873821382665
 20
133.223542768281
 30
0.0
 10
59.05708538488194
 20
133.1067259334671
 30
0.0
 10
59.18573415467472
 20
132.9999918908178
 30
0.0
 10
59.32451416700233
 20
132.9035789038873
 30
0.0
 10
59.47164831996211
 20
132.8187197096332
 30
0.0
 10
59.62669873375603
 20
132.7456579072077
 30
0.0
 10
59.78785567180829
 20
132.6851560062377
 30
0.0
 10
59.98242924709744
 20
132.6299002156299
 30
0.0
 10
60.21096952148571
 20
132.5871567235683
 30
0.0
 10
60.38514383849836
 20
132.5812119868579
 30
0.0
 10
60.47220198753388
 20
132.5782406159678
 30
0.0
 11
58.54035033495575
 21
133.9217167580218
 31
0.0
 11
58.66061474615191
 21
133.6228180573075
 31
0.0
 11
58.83389789895584
 21
133.3511826085902
 31
0.0
 11
58.94059211170793
 21
133.2252097472162
 31
0.0
 11
59.05798842516074
 21
133.1091434259303
 31
0.0
 11
59.1871813052681
 21
133.0018961412154
 31
0.0
 11
59.32504911483174
 21
132.9060484370296
 31
0.0
 11
59.47273636640045
 21
132.8208082178351
 31
0.0
 11
59.62696546405246
 21
132.748068580355
 31
0.0
 11
59.78857515526968
 21
132.6874178283475
 31
0.0
 11
59.95456389732885
 21
132.6400039939106
 31
0.0
 11
60.21162998442762
 21
132.5936953205652
 31
0.0
 11
60.47220198753388
 21
132.5782406159678
 31
0.0
  0
LWPOLYLINE
  5
507
330
1F
100
AcDbEntity
  8
Sichtbare_Kanten_TC_020513_DIN_
  6
Continuous
 62
     7
100
AcDbPolyline
 90
       25
 70
     0
 43
0.0
 10
56.91180494081647
 20
138.8384222475748
 10
56.90197732698584
 20
138.8847866145828
 10
56.89215209734107
 20
138.9315077153898
 10
56.88233163606788
 20
138.9785739270908
 10
56.87251355898059
 20
139.0259730307318
 10
56.86269548189318
 20
139.0736934034088
 10
56.85287978899146
 20
139.1217231241918
 10
56.84306409608985
 20
139.1700496761058
 10
56.83324601900245
 20
139.2186617342688
 10
56.82342794191504
 20
139.2675470797278
 10
56.81360748064185
 20
139.3166934935308
 10
56.80378225099707
 20
139.3660890547498
 10
56.79395463716656
 20
139.4157224384998
 10
56.78412702333594
 20
139.4655566899038
 10
56.77430179369117
 20
139.5155536619878
 10
56.76448133241809
 20
139.5657020298698
 10
56.75466325533068
 20
139.6159886805278
 10
56.74484517824317
 20
139.6664005009388
 10
56.73502948534156
 20
139.7169261662228
 10
56.72521379243995
 20
139.7675525633548
 10
56.71539571535254
 20
139.8182665793158
 10
56.70557763826514
 20
139.8690562931758
 10
56.69575717699195
 20
139.9199091879588
 10
56.68593194734729
 20
139.9708121506428
 10
56.67610433351666
 20
140.0217532603008
  0
LWPOLYLINE
  5
508
330
1F
100
AcDbEntity
  8
Sichtbare_Kanten_TC_020513_DIN_
  6
Continuous
 62
     7
100
AcDbPolyline
 90
       25
 70
     0
 43
0.0
 10
56.67610433351666
 20
140.0217532603008
 10
56.68593194734729
 20
139.9962830034948
 10
56.69575717699195
 20
139.9708312241298
 10
56.70557763826514
 20
139.9454050747608
 10
56.71539571535254
 20
139.9200099198078
 10
56.72521379243995
 20
139.8946529118278
 10
56.73502948534156
 20
139.8693400112848
 10
56.74484517824317
 20
139.8440771786428
 10
56.75466325533068
 20
139.8188709704138
 10
56.76448133241809
 20
139.7937279431088
 10
56.77430179369117
 20
139.7686534611438
 10
56.78412702333594
 20
139.7436552731258
 10
56.79395463716656
 20
139.7187381474238
 10
56.80378225099707
 20
139.6939211575248
 10
56.81360748064185
 20
139.6692233769158
 10
56.82342794191504
 20
139.6446501700138
 10
56.83324601900245
 20
139.6202074972848
 10
56.84306409608985
 20
139.5959013191918
 10
56.85287978899146
 20
139.5717381922468
 10
56.86269548189318
 20
139.5477234808668
 10
56.87251355898059
 20
139.5238631455158
 10
56.88233163606788
 20
139.5001637427068
 10
56.89215209734107
 20
139.4766306368568
 10
56.90197732698584
 20
139.4532697884298
 10
56.91180494081647
 20
139.4300877539378
  0
LWPOLYLINE
  5
509
330
1F
100
AcDbEntity
  8
Sichtbare_Kanten_TC_020513_DIN_
  6
Continuous
 62
     7
100
AcDbPolyline
 90
       25
 70
     0
 43
0.0
 10
43.84160306703717
 20
151.8029254166348
 10
43.83818414461285
 20
151.8118541924218
 10
43.83490827333594
 20
151.8207817761158
 10
43.83177545320655
 20
151.8297093598108
 10
43.82878568422467
 20
151.8386369435048
 10
43.82594373476178
 20
151.8475633351068
 10
43.82324960481788
 20
151.8564909188008
 10
43.82069375764996
 20
151.8654173104028
 10
43.81828573000109
 20
151.8743448940968
 10
43.81602552187115
 20
151.8832712856988
 10
43.81390836488868
 20
151.8921988693928
 10
43.81193902742535
 20
151.9011276451808
 10
43.81011274110949
 20
151.9100564209678
 10
43.80842950594098
 20
151.9189840046628
 10
43.80689409029156
 20
151.9279127804498
 10
43.80550649416114
 20
151.9368403641438
 10
43.80426671754987
 20
151.9457679478388
 10
43.80316999208594
 20
151.9546943394398
 10
43.80222108614117
 20
151.9636219231348
 10
43.80141523134375
 20
151.9725483147358
 10
43.80075719606543
 20
151.9814747063378
 10
43.80024698030616
 20
151.9904022900318
 10
43.79987981569434
 20
151.9993298737268
 10
43.79966047060157
 20
152.0082586495138
 10
43.79958894502784
 20
152.0171862332088
  0
LWPOLYLINE
  5
50A
330
1F
100
AcDbEntity
  8
Sichtbare_Kanten_TC_020513_DIN_
  6
Continuous
 62
     7
100
AcDbPolyline
 90
       25
 70
     0
 43
0.0
 10
45.19958760988385
 20
152.0171862332088
 10
45.19962575685645
 20
152.0082586495138
 10
45.19973542940284
 20
151.9993298737268
 10
45.19991662752295
 20
151.9904022900318
 10
45.20017411958844
 20
151.9814747063378
 10
45.20050313722754
 20
151.9725483147358
 10
45.20090368044043
 20
151.9636219231348
 10
45.20138051759864
 20
151.9546943394398
 10
45.20192411195905
 20
151.9457679478388
 10
45.20254876863623
 20
151.9368403641438
 10
45.20324018251569
 20
151.9279127804498
 10
45.20400789034034
 20
151.9189840046628
 10
45.20484712373889
 20
151.9100564209678
 10
45.20576265108258
 20
151.9011276451808
 10
45.20674970400006
 20
151.8921988693928
 10
45.20780828249127
 20
151.8832712856988
 10
45.20893838655616
 20
151.8743448940968
 10
45.21014001619489
 20
151.8654173104028
 10
45.21141793977887
 20
151.8564909188008
 10
45.21276738893658
 20
151.8475633351068
 10
45.21418836366809
 20
151.8386369435048
 10
45.21568086397315
 20
151.8297093598108
 10
45.21724488985205
 20
151.8207817761158
 10
45.21888520967639
 20
151.8118541924218
 10
45.22059705507428
 20
151.8029254166348
  0
LWPOLYLINE
  5
50B
330
1F
100
AcDbEntity
  8
Sichtbare_Kanten_TC_020513_DIN_
  6
Continuous
 62
     7
100
AcDbPolyline
 90
       25
 70
     0
 43
0.0
 10
44.23052575838239
 20
151.5819304672938
 10
44.20110967409289
 20
151.5824692932828
 10
44.17268541109235
 20
151.5840893475278
 10
44.14527204286725
 20
151.5867953983998
 10
44.11886956941754
 20
151.5905922142728
 10
44.09349706422955
 20
151.5954821793298
 10
44.06915929567487
 20
151.6014712540368
 10
44.04586580049664
 20
151.6085630146718
 10
44.02363088380957
 20
151.6167622296078
 10
44.00245931398536
 20
151.6260724751218
 10
43.98237493288184
 20
151.6364937512138
 10
43.96378782045514
 20
151.6477757183768
 10
43.94683625948096
 20
151.6596894947748
 10
43.93144395601416
 20
151.6720991818168
 10
43.91752031099463
 20
151.6848712650998
 10
43.90499379884864
 20
151.6978710381248
 10
43.89377858888776
 20
151.7109637943968
 10
43.88379361879498
 20
151.7240160195088
 10
43.87496259462506
 20
151.7368918148738
 10
43.86719968568946
 20
151.7494576660848
 10
43.86042382967145
 20
151.7615776745538
 10
43.85455873262555
 20
151.7731195179678
 10
43.84952333223487
 20
151.7839472977378
 10
43.84523179781104
 20
151.7939274994588
 10
43.84160306703717
 20
151.8029254166348
  0
LWPOLYLINE
  5
50C
330
1F
100
AcDbEntity
  8
Sichtbare_Kanten_TC_020513_DIN_
  6
Continuous
 62
     7
100
AcDbPolyline
 90
       25
 70
     0
 43
0.0
 10
45.22059705507428
 20
151.8029254166348
 10
45.22242334139014
 20
151.7938416687708
 10
45.22455957185895
 20
151.7838626591428
 10
45.22704866182477
 20
151.7731075970388
 10
45.22992875826026
 20
151.7617004601218
 10
45.23323800813824
 20
151.7497616497738
 10
45.23702409517438
 20
151.7374127594688
 10
45.24132516634137
 20
151.7247765747768
 10
45.24617936861188
 20
151.7119734970788
 10
45.25162961733014
 20
151.6991263119438
 10
45.25771405946875
 20
151.6863566128468
 10
45.26447561037207
 20
151.6737859932638
 10
45.27195718538434
 20
151.6615360466698
 10
45.28019693147803
 20
151.6497283665398
 10
45.28923299562609
 20
151.6384857384418
 10
45.29904153597028
 20
151.6280012814268
 10
45.30946996462018
 20
151.6185241429068
 10
45.32052304994727
 20
151.6100853172998
 10
45.33220556032325
 20
151.6027050701838
 10
45.34453656923449
 20
151.5964048592308
 10
45.35749223482276
 20
151.5912144867638
 10
45.37102487337256
 20
151.5871637551048
 10
45.38513925325538
 20
151.5842610089048
 10
45.39981630098487
 20
151.5825145928128
 10
45.41505601656104
 20
151.5819304672938
  0
LWPOLYLINE
  5
50D
330
1F
100
AcDbEntity
  8
Sichtbare_Kanten_TC_020513_DIN_
  6
Continuous
 62
     7
100
AcDbPolyline
 90
       25
 70
     0
 43
0.0
 10
57.51511361848975
 20
150.9450143067098
 10
57.54274394762189
 20
151.0785048691488
 10
57.57032182466656
 20
151.2089293686608
 10
57.59786632311017
 20
151.3360481945728
 10
57.62539651643897
 20
151.4596217362148
 10
57.65292670976788
 20
151.5794091908198
 10
57.68047836076886
 20
151.6951733319018
 10
57.70806577455664
 20
151.8066721646048
 10
57.73570802461779
 20
151.9136529652338
 10
57.76332404863507
 20
152.0155339924558
 10
57.79089238893658
 20
152.1119838444448
 10
57.81843211900855
 20
152.2028368202908
 10
57.84595992815167
 20
152.2879272190788
 10
57.87349488985205
 20
152.3670893398978
 10
57.90105369341046
 20
152.4401598660208
 10
57.92865302812726
 20
152.5069730965358
 10
57.95630243074567
 20
152.5673394886708
 10
57.98393514406359
 20
152.6209526745538
 10
58.01155832063824
 20
152.6676862923368
 10
58.03918864977027
 20
152.7074497429588
 10
58.06683805238868
 20
152.7401524273618
 10
58.09447791826398
 20
152.7656632153248
 10
58.12210109483868
 20
152.7839236942988
 10
58.14972903978497
 20
152.7949016777728
 10
58.17737367403174
 20
152.7985673634268
  0
LWPOLYLINE
  5
50E
330
1F
100
AcDbEntity
  8
Sichtbare_Kanten_TC_020513_DIN_
  6
Continuous
 62
     7
100
AcDbPolyline
 90
       25
 70
     0
 43
0.0
 10
58.17737367403174
 20
151.3985675064778
 10
58.14971711885596
 20
151.3967328755118
 10
58.12211539995349
 20
151.3912492481928
 10
58.09455182802344
 20
151.3821440426568
 10
58.06700732957984
 20
151.3694482533198
 10
58.03946521532208
 20
151.3531904904108
 10
58.01190641176368
 20
151.3333981720668
 10
57.98431422960425
 20
151.3101022927028
 10
57.95666721117163
 20
151.2833314625478
 10
57.92900111925275
 20
151.2531727043848
 10
57.90139224779279
 20
151.2197941033108
 10
57.87382390749127
 20
151.1832826821068
 10
57.84627702486188
 20
151.1437183109978
 10
57.81873491060406
 20
151.1011844364858
 10
57.79118087541724
 20
151.0557633129818
 10
57.76359346162946
 20
151.0075360028008
 10
57.73595836412574
 20
150.9565859524468
 10
57.70828750383527
 20
150.9030562130668
 10
57.68066432726056
 20
150.8472531525358
 10
57.65307929765845
 20
150.7893138615348
 10
57.62551572572858
 20
150.7293587414488
 10
57.59795453798449
 20
150.6675093857508
 10
57.57037904512555
 20
150.6038838116388
 10
57.54277255785138
 20
150.5386048046808
 10
57.51511361848975
 20
150.4717915741658
  0
LWPOLYLINE
  5
50F
330
1F
100
AcDbEntity
  8
Sichtbare_Kanten_TC_020513_DIN_
  6
Continuous
 62
     7
100
AcDbPolyline
 90
       25
 70
     0
 43
0.0
 10
57.10368421327735
 20
149.9985676495298
 10
57.11389091264874
 20
150.0123244015438
 10
57.12541606676246
 20
150.0281887737968
 10
57.13815000307227
 20
150.0461309639668
 10
57.15198304903174
 20
150.0661283222898
 10
57.16680791628039
 20
150.0881522385338
 10
57.18251731645739
 20
150.1121764866568
 10
57.19899680864489
 20
150.1381748406148
 10
57.21614148866809
 20
150.1661222664578
 10
57.23383929979474
 20
150.1959901539538
 10
57.25198295366437
 20
150.2277546612478
 10
57.27046039354474
 20
150.2613871781088
 10
57.28916671526105
 20
150.2968614784938
 10
57.30799224626685
 20
150.3341525284508
 10
57.32682254564435
 20
150.3732329098448
 10
57.34555509340436
 20
150.4140775887228
 10
57.36407783281476
 20
150.4566579548578
 10
57.38272454988623
 20
150.5019658295368
 10
57.40205791246569
 20
150.5517821995478
 10
57.42177989732886
 20
150.6061225620968
 10
57.44157340776599
 20
150.6649690357908
 10
57.46111896288068
 20
150.7283013550498
 10
57.48010423433448
 20
150.7960980622038
 10
57.49820735704566
 20
150.8683424679498
 10
57.51511361848975
 20
150.9450143067098
  0
LWPOLYLINE
  5
510
330
1F
100
AcDbEntity
  8
Sichtbare_Kanten_TC_020513_DIN_
  6
Continuous
 62
     7
100
AcDbPolyline
 90
       25
 70
     0
 43
0.0
 10
57.51511361848975
 20
150.4717915741658
 10
57.50926997911608
 20
150.4579001156548
 10
57.50233438264996
 20
150.4422527043078
 10
57.49419715654517
 20
150.4249447075588
 10
57.48475339662696
 20
150.4060762612088
 10
57.47389819872046
 20
150.3857451168758
 10
57.46152427446515
 20
150.3640490261778
 10
57.44752910387189
 20
150.3410881249168
 10
57.43180539858014
 20
150.3169589726188
 10
57.41424587022925
 20
150.2917593209008
 10
57.39474799883038
 20
150.2655904976588
 10
57.37320449602277
 20
150.2385478703238
 10
57.34998967897565
 20
150.2113013951048
 10
57.32641961824567
 20
150.1854139057858
 10
57.30275419008405
 20
150.1609771935208
 10
57.27918651353986
 20
150.1380007950528
 10
57.25591209184796
 20
150.1164942471248
 10
57.23312642824317
 20
150.0964694706658
 10
57.21102264177466
 20
150.0779336182338
 10
57.18980100404883
 20
150.0608974186638
 10
57.16964986574317
 20
150.0453716007928
 10
57.15076949846417
 20
150.0313657013638
 10
57.13335063707496
 20
150.0188904492118
 10
57.11759116899634
 20
150.0079541889888
 10
57.10368421327735
 20
149.9985676495298
  0
LWPOLYLINE
  5
511
330
1F
100
AcDbEntity
  8
Sichtbare_Kanten_TC_020513_DIN_
  6
Continuous
 62
     7
100
AcDbPolyline
 90
       25
 70
     0
 43
0.0
 10
129.4954898620809
 20
149.9985676495298
 10
129.481582906362
 20
150.0079541889888
 10
129.465823438283
 20
150.0188904492118
 10
129.448404576894
 20
150.0313657013638
 10
129.429524209615
 20
150.0453716007928
 10
129.40937307131
 20
150.0608974186638
 10
129.388151433584
 20
150.0779336182338
 10
129.366047647115
 20
150.0964694706658
 10
129.343261983511
 20
150.1164942471248
 10
129.319987561819
 20
150.1380007950528
 10
129.296419885275
 20
150.1609771935208
 10
129.272754457113
 20
150.1854139057858
 10
129.2491843963829
 20
150.2113013951048
 10
129.2259695793359
 20
150.2385478703238
 10
129.204426076528
 20
150.2655904976588
 10
129.1849282051289
 20
150.2917593209008
 10
129.167368676778
 20
150.3169589726188
 10
129.151644971487
 20
150.3410881249168
 10
129.137649800893
 20
150.3640490261778
 10
129.1252758766379
 20
150.3857451168758
 10
129.114420678731
 20
150.4060762612088
 10
129.104976918813
 20
150.4249447075588
 10
129.096839692709
 20
150.4422527043078
 10
129.089904096243
 20
150.4579001156548
 10
129.084060456869
 20
150.4717915741658
  0
LWPOLYLINE
  5
512
330
1F
100
AcDbEntity
  8
Sichtbare_Kanten_TC_020513_DIN_
  6
Continuous
 62
     7
100
AcDbPolyline
 90
       25
 70
     0
 43
0.0
 10
129.084060456869
 20
150.4717915741658
 10
129.056403901693
 20
150.5385988442158
 10
129.028804566976
 20
150.6038623539668
 10
129.00123861086
 20
150.6674617020348
 10
128.973696496603
 20
150.7292776791318
 10
128.9461519981589
 20
150.7891910759668
 10
128.9185931946009
 20
150.8470826832508
 10
128.8910010124409
 20
150.9028332916958
 10
128.863353994009
 20
150.9563224999168
 10
128.8356902862749
 20
151.0073404995658
 10
128.80807903063
 20
151.0556178776478
 10
128.780510690328
 20
151.1010699955678
 10
128.752963807699
 20
151.1436181751948
 10
128.7254216934409
 20
151.1831825463038
 10
128.6978676582539
 20
151.2196856228568
 10
128.670280244466
 20
151.2530463425378
 10
128.642645146963
 20
151.2831872193078
 10
128.614974286672
 20
151.3099997727138
 10
128.587351110098
 20
151.3333337990498
 10
128.559766080495
 20
151.3531523434378
 10
128.532202508566
 20
151.3694291798338
 10
128.504641320821
 20
151.3821368900998
 10
128.477065827963
 20
151.3912468640068
 10
128.449459340688
 20
151.3967328755118
 10
128.421800401327
 20
151.3985675064778
  0
LWPOLYLINE
  5
513
330
1F
100
AcDbEntity
  8
Sichtbare_Kanten_TC_020513_DIN_
  6
Continuous
 62
     7
100
AcDbPolyline
 90
       25
 70
     0
 43
0.0
 10
129.084060456869
 20
150.9450143067098
 10
129.100966718313
 20
150.8683424679498
 10
129.1190698410239
 20
150.7960980622038
 10
129.138055112478
 20
150.7283013550498
 10
129.157600667593
 20
150.6649690357908
 10
129.17739417803
 20
150.6061225620968
 10
129.1971161628929
 20
150.5517821995478
 10
129.2164495254719
 20
150.5019658295368
 10
129.2350962425439
 20
150.4566579548578
 10
129.253618981954
 20
150.4140775887228
 10
129.272351529714
 20
150.3732329098448
 10
129.291181829092
 20
150.3341525284508
 10
129.310007360098
 20
150.2968614784938
 10
129.328713681814
 20
150.2613871781088
 10
129.347191121694
 20
150.2277546612478
 10
129.365334775564
 20
150.1959901539538
 10
129.383032586691
 20
150.1661222664578
 10
129.400177266714
 20
150.1381748406148
 10
129.416656758901
 20
150.1121764866568
 10
129.432366159078
 20
150.0881522385338
 10
129.447191026327
 20
150.0661283222898
 10
129.461024072286
 20
150.0461309639668
 10
129.473758008596
 20
150.0281887737968
 10
129.48528316271
 20
150.0123244015438
 10
129.4954898620809
 20
149.9985676495298
  0
LWPOLYLINE
  5
514
330
1F
100
AcDbEntity
  8
Sichtbare_Kanten_TC_020513_DIN_
  6
Continuous
 62
     7
100
AcDbPolyline
 90
       25
 70
     0
 43
0.0
 10
128.421800401327
 20
152.7985673634268
 10
128.449430730459
 20
152.7949052540518
 10
128.477008607503
 20
152.7839570728998
 10
128.504553105947
 20
152.7657752720578
 10
128.532083299276
 20
152.7404170719838
 10
128.559613492605
 20
152.7079373089528
 10
128.5871651436059
 20
152.6683896271448
 10
128.614752557394
 20
152.6218324391108
 10
128.6423948074549
 20
152.5683253494958
 10
128.6700108314719
 20
152.5081461159448
 10
128.697581555959
 20
152.4415295807578
 10
128.725121286031
 20
152.3686319081048
 10
128.752649095174
 20
152.2896104542468
 10
128.780181672689
 20
152.2046201912618
 10
128.807740476247
 20
152.1138208595968
 10
128.835339810964
 20
152.0173674313288
 10
128.862989213583
 20
151.9154601780628
 10
128.890624311086
 20
151.8085878578878
 10
128.918245103475
 20
151.6970282284478
 10
128.945875432607
 20
151.5810018269278
 10
128.9735248352259
 20
151.4607387272578
 10
129.001164701101
 20
151.3366966931088
 10
129.028790261861
 20
151.2092261997918
 10
129.0564158226219
 20
151.0785811630948
 10
129.084060456869
 20
150.9450143067098
  0
LWPOLYLINE
  5
515
330
1F
100
AcDbEntity
  8
Sichtbare_Kanten_TC_020513_DIN_
  6
Continuous
 62
     7
100
AcDbPolyline
 90
       25
 70
     0
 43
0.0
 10
129.687369134542
 20
139.4300877539378
 10
129.697196748373
 20
139.4532697884298
 10
129.707021978017
 20
139.4766306368568
 10
129.716842439291
 20
139.5001637427068
 10
129.7266605163779
 20
139.5238631455158
 10
129.736478593465
 20
139.5477234808668
 10
129.746294286367
 20
139.5717381922468
 10
129.756109979269
 20
139.5959013191918
 10
129.765928056356
 20
139.6202074972848
 10
129.775746133443
 20
139.6446501700138
 10
129.785566594717
 20
139.6692233769158
 10
129.795391824361
 20
139.6939211575248
 10
129.805219438192
 20
139.7187381474238
 10
129.815047052023
 20
139.7436552731258
 10
129.824872281667
 20
139.7686534611438
 10
129.834692742941
 20
139.7937279431088
 10
129.844510820028
 20
139.8188709704138
 10
129.854328897115
 20
139.8440771786428
 10
129.864144590017
 20
139.8693400112848
 10
129.873960282919
 20
139.8946529118278
 10
129.883778360006
 20
139.9200099198078
 10
129.8935964370929
 20
139.9454050747608
 10
129.903416898367
 20
139.9708312241298
 10
129.913242128011
 20
139.9962830034948
 10
129.923069741842
 20
140.0217532603008
  0
LWPOLYLINE
  5
516
330
1F
100
AcDbEntity
  8
Sichtbare_Kanten_TC_020513_DIN_
  6
Continuous
 62
     7
100
AcDbPolyline
 90
       25
 70
     0
 43
0.0
 10
129.923069741842
 20
140.0217532603008
 10
129.913242128011
 20
139.9708121506428
 10
129.903416898367
 20
139.9199091879588
 10
129.8935964370929
 20
139.8690562931758
 10
129.883778360006
 20
139.8182665793158
 10
129.873960282919
 20
139.7675525633548
 10
129.864144590017
 20
139.7169261662228
 10
129.854328897115
 20
139.6664005009388
 10
129.844510820028
 20
139.6159886805278
 10
129.834692742941
 20
139.5657020298698
 10
129.824872281667
 20
139.5155536619878
 10
129.815047052023
 20
139.4655566899038
 10
129.805219438192
 20
139.4157224384998
 10
129.795391824361
 20
139.3660890547498
 10
129.785566594717
 20
139.3166934935308
 10
129.775746133443
 20
139.2675470797278
 10
129.765928056356
 20
139.2186617342688
 10
129.756109979269
 20
139.1700496761058
 10
129.746294286367
 20
139.1217231241918
 10
129.736478593465
 20
139.0736934034088
 10
129.7266605163779
 20
139.0259730307318
 10
129.716842439291
 20
138.9785739270908
 10
129.707021978017
 20
138.9315077153898
 10
129.697196748373
 20
138.8847866145828
 10
129.687369134542
 20
138.8384222475748
  0
LWPOLYLINE
  5
517
330
1F
100
AcDbEntity
  8
Sichtbare_Kanten_TC_020513_DIN_
  6
Continuous
 62
     7
100
AcDbPolyline
 90
       25
 70
     0
 43
0.0
 10
142.799585130331
 20
152.0171862332088
 10
142.799513604757
 20
152.0082586495138
 10
142.799294259664
 20
151.9993298737268
 10
142.798927095052
 20
151.9904022900318
 10
142.798416879293
 20
151.9814747063378
 10
142.797758844015
 20
151.9725483147358
 10
142.796952989217
 20
151.9636219231348
 10
142.796004083273
 20
151.9546943394398
 10
142.7949073578089
 20
151.9457679478388
 10
142.7936675811969
 20
151.9368403641438
 10
142.792279985067
 20
151.9279127804498
 10
142.790744569417
 20
151.9189840046628
 10
142.789061334249
 20
151.9100564209678
 10
142.787235047933
 20
151.9011276451808
 10
142.78526571047
 20
151.8921988693928
 10
142.783148553487
 20
151.8832712856988
 10
142.780888345357
 20
151.8743448940968
 10
142.778480317709
 20
151.8654173104028
 10
142.775924470541
 20
151.8564909188008
 10
142.773230340597
 20
151.8475633351068
 10
142.770388391134
 20
151.8386369435048
 10
142.767398622152
 20
151.8297093598108
 10
142.764265802023
 20
151.8207817761158
 10
142.760989930746
 20
151.8118541924218
 10
142.757571008321
 20
151.8029254166348
  0
LWPOLYLINE
  5
518
330
1F
100
AcDbEntity
  8
Sichtbare_Kanten_TC_020513_DIN_
  6
Continuous
 62
     7
100
AcDbPolyline
 90
       25
 70
     0
 43
0.0
 10
141.378577020284
 20
151.8029254166348
 10
141.380288865682
 20
151.8118541924218
 10
141.381929185506
 20
151.8207817761158
 10
141.383493211385
 20
151.8297093598108
 10
141.384985711691
 20
151.8386369435048
 10
141.386406686422
 20
151.8475633351068
 10
141.3877561355799
 20
151.8564909188008
 10
141.389034059164
 20
151.8654173104028
 10
141.390235688802
 20
151.8743448940968
 10
141.391365792867
 20
151.8832712856988
 10
141.392424371359
 20
151.8921988693928
 10
141.393411424276
 20
151.9011276451808
 10
141.39432695162
 20
151.9100564209678
 10
141.395166185018
 20
151.9189840046628
 10
141.395933892843
 20
151.9279127804498
 10
141.3966253067219
 20
151.9368403641438
 10
141.3972499634
 20
151.9457679478388
 10
141.39779355776
 20
151.9546943394398
 10
141.398270394918
 20
151.9636219231348
 10
141.398670938131
 20
151.9725483147358
 10
141.39899995577
 20
151.9814747063378
 10
141.399257447835
 20
151.9904022900318
 10
141.399438645956
 20
151.9993298737268
 10
141.399548318502
 20
152.0082586495138
 10
141.399586465475
 20
152.0171862332088
  0
LWPOLYLINE
  5
519
330
1F
100
AcDbEntity
  8
Sichtbare_Kanten_TC_020513_DIN_
  6
Continuous
 62
     7
100
AcDbPolyline
 90
       25
 70
     0
 43
0.0
 10
142.757571008321
 20
151.8029254166348
 10
142.753927972433
 20
151.7938953129508
 10
142.7496221328939
 20
151.7838817326288
 10
142.744562890646
 20
151.7730181900718
 10
142.7386739517419
 20
151.7614429680568
 10
142.731869485494
 20
151.7492871968008
 10
142.724073197958
 20
151.7366903511738
 10
142.7152040268149
 20
151.7237835613948
 10
142.70518090975
 20
151.7107051102378
 10
142.693922784444
 20
151.6975897042018
 10
142.6813438202109
 20
151.6845708576898
 10
142.667367723104
 20
151.6717856613858
 10
142.651908662435
 20
151.6593676296928
 10
142.6348951126299
 20
151.6474538532948
 10
142.61623647463
 20
151.6361790386898
 10
142.5961711670129
 20
151.6258125988698
 10
142.575037744161
 20
151.6165559975368
 10
142.552840974447
 20
151.6084056584098
 10
142.529599931356
 20
151.6013544289328
 10
142.505314614889
 20
151.5954011170128
 10
142.480004098531
 20
151.5905397621848
 10
142.4536683822839
 20
151.5867667881708
 10
142.426326539632
 20
151.5840774265988
 10
142.397983338949
 20
151.5824669090968
 10
142.368648316976
 20
151.5819304672938
  0
LWPOLYLINE
  5
51A
330
1F
100
AcDbEntity
  8
Sichtbare_Kanten_TC_020513_DIN_
  6
Continuous
 62
     7
100
AcDbPolyline
 90
       25
 70
     0
 43
0.0
 10
141.184118058797
 20
151.5819304672938
 10
141.198385026571
 20
151.5824394909598
 10
141.212132241842
 20
151.5839606014948
 10
141.22535970461
 20
151.5864830700618
 10
141.238062646505
 20
151.5899949757318
 10
141.250250604269
 20
151.5944879738548
 10
141.26191880953
 20
151.5999513355948
 10
141.273062493917
 20
151.6063719479298
 10
141.283686425802
 20
151.6137426583028
 10
141.293790605184
 20
151.6220503536918
 10
141.303365495321
 20
151.6312735764248
 10
141.312377717611
 20
151.6413574902278
 10
141.320836808797
 20
151.6522746769648
 10
141.3287618423669
 20
151.6640012947778
 10
141.3361671234339
 20
151.6765170780878
 10
141.343062188741
 20
151.6897969929438
 10
141.349427964803
 20
151.7037254063348
 10
141.355102326986
 20
151.7177623001788
 10
141.360109117147
 20
151.7316752163628
 10
141.3644864822589
 20
151.7452924935078
 10
141.368282106039
 20
151.7584424702388
 10
141.371543672201
 20
151.7709534851768
 10
141.37431409609
 20
151.7826526848538
 10
141.376645829794
 20
151.7933672157978
 10
141.378577020284
 20
151.8029254166348
  0
LWPOLYLINE
  5
51B
330
1F
100
AcDbEntity
  8
Sichtbare_Kanten_TC_020513_DIN_
  6
Continuous
 62
     7
100
AcDbPolyline
 90
       25
 70
     0
 43
0.0
 10
103.009917404768
 20
122.0043080536588
 10
103.012525704023
 20
122.0043032852868
 10
103.015409376737
 20
122.0042854038938
 10
103.0185374284949
 20
122.0042460648278
 10
103.021875884649
 20
122.0041804997188
 10
103.025393154737
 20
122.0040791718228
 10
103.029057052251
 20
122.0039361206748
 10
103.032833602544
 20
122.0037453858118
 10
103.036691811201
 20
122.0034986225828
 10
103.040598895666
 20
122.0031886784298
 10
103.044521477338
 20
122.0028095928888
 10
103.048427965757
 20
122.0023542134028
 10
103.052285578367
 20
122.0018153874138
 10
103.05606212866
 20
122.0011847702718
 10
103.059724238035
 20
122.0004575936058
 10
103.06324031603
 20
121.9996255127648
 10
103.066592481252
 20
121.9986766068198
 10
103.069815900442
 20
121.9975727287988
 10
103.0728503729069
 20
121.9962959973078
 10
103.075623180982
 20
121.9948285309528
 10
103.078061010954
 20
121.9931584088068
 10
103.080092337247
 20
121.9912641731958
 10
103.081642654058
 20
121.9891243664478
 10
103.082617786047
 20
121.9867485253078
 10
103.082949783918
 20
121.9841736046528
  0
LWPOLYLINE
  5
51C
330
1F
100
AcDbEntity
  8
Sichtbare_Kanten_TC_020513_DIN_
  6
Continuous
 62
     7
100
AcDbPolyline
 90
       25
 70
     0
 43
0.0
 10
83.51622429144055
 20
121.9841736046528
 10
83.51636495840216
 20
121.9858842579588
 10
83.51692941438824
 20
121.9878774372798
 10
83.51812627565528
 20
121.9900649277428
 10
83.51999249708325
 20
121.9921940056538
 10
83.52234211218024
 20
121.9940584389428
 10
83.52507379305035
 20
121.9956773010948
 10
83.52811839830548
 20
121.9970839707118
 10
83.53144135725165
 20
121.9983118263938
 10
83.53498008501197
 20
121.9993727890708
 10
83.53867199670935
 20
122.0002835480428
 10
83.54245569955975
 20
122.0010572163328
 10
83.54629125845105
 20
122.0017116753318
 10
83.55021085989148
 20
122.0022707668998
 10
83.55418470155865
 20
122.0027440277798
 10
83.55817940485144
 20
122.0031386105278
 10
83.56215861093665
 20
122.0034604756098
 10
83.56608834516675
 20
122.0037179676748
 10
83.56993284475476
 20
122.0039170471888
 10
83.57365694296038
 20
122.0040660588008
 10
83.57722666513587
 20
122.0041721550678
 10
83.5806068445412
 20
122.0042424885488
 10
83.58376171838904
 20
122.0042842118008
 10
83.5866567159859
 20
122.0043032852868
 10
83.58925667059094
 20
122.0043080536588
  0
LWPOLYLINE
  5
51D
330
1F
100
AcDbEntity
  8
Sichtbare_Kanten_TC_020513_DIN_
  6
Continuous
 62
     7
100
AcDbPolyline
 90
       25
 70
     0
 43
0.0
 10
259.9994498779299
 20
151.8029254166348
 10
259.9795037796019
 20
151.8118541924218
 10
259.9595314552309
 20
151.8207817761158
 10
259.9395400573729
 20
151.8297093598108
 10
259.9195248176579
 20
151.8386369435048
 10
259.899490504456
 20
151.8475633351068
 10
259.8794371177669
 20
151.8564909188008
 10
259.859362273407
 20
151.8654173104028
 10
259.839270739746
 20
151.8743448940968
 10
259.8191625167849
 20
151.8832712856988
 10
259.7990376045229
 20
151.8921988693928
 10
259.77889600296
 20
151.9011276451808
 10
259.7587377120969
 20
151.9100564209678
 10
259.738569884491
 20
151.9189840046628
 10
259.718390135956
 20
151.9279127804498
 10
259.698200850678
 20
151.9368403641438
 10
259.678004412842
 20
151.9457679478388
 10
259.6577984382629
 20
151.9546943394398
 10
259.6375853111269
 20
151.9636219231348
 10
259.6173650314329
 20
151.9725483147358
 10
259.5971423675539
 20
151.9814747063378
 10
259.576912551117
 20
151.9904022900318
 10
259.5566779663089
 20
151.9993298737268
 10
259.5364433815
 20
152.0082586495138
 10
259.516204028321
 20
152.0171862332088
  0
LWPOLYLINE
  5
51E
330
1F
100
AcDbEntity
  8
Sichtbare_Kanten_TC_020513_DIN_
  6
Continuous
 62
     7
100
AcDbPolyline
 90
       25
 70
     0
 43
0.0
 10
261.008701949311
 20
151.5819304672938
 10
260.9609443237309
 20
151.5824692932828
 10
260.912655024719
 20
151.5840893475278
 10
260.8638650466919
 20
151.5867953983998
 10
260.814610152436
 20
151.5905922142728
 10
260.7649261047359
 20
151.5954821793298
 10
260.714848666382
 20
151.6014712540368
 10
260.664406447601
 20
151.6085630146718
 10
260.613639979553
 20
151.6167622296078
 10
260.562580256653
 20
151.6260724751218
 10
260.511294036102
 20
151.6364937512138
 10
260.461042552185
 20
151.6477757183768
 10
260.412519602967
 20
151.6596894947748
 10
260.3658205558779
 20
151.6720991818168
 10
260.321038394165
 20
151.6848712650998
 10
260.27826848526
 20
151.6978710381248
 10
260.2376038124089
 20
151.7109637943968
 10
260.199139743042
 20
151.7240160195088
 10
260.162974028778
 20
151.7368918148738
 10
260.129194884491
 20
151.7494576660848
 10
260.097900061798
 20
151.7615776745538
 10
260.0691849281309
 20
151.7731195179678
 10
260.043142466736
 20
151.7839472977378
 10
260.0198656608579
 20
151.7939274994588
 10
259.9994498779299
 20
151.8029254166348
  0
LWPOLYLINE
  5
51F
330
1F
100
AcDbEntity
  8
Sichtbare_Kanten_TC_020513_DIN_
  6
Continuous
 62
     7
100
AcDbPolyline
 90
       25
 70
     0
 43
0.0
 10
261.178541808323
 20
138.8384222475748
 10
261.157432227329
 20
138.8847866145828
 10
261.1371809532209
 20
138.9315077153898
 10
261.117785601811
 20
138.9785739270908
 10
261.099255709843
 20
139.0259730307318
 10
261.081591277317
 20
139.0736934034088
 10
261.064799456791
 20
139.1217231241918
 10
261.0488826324499
 20
139.1700496761058
 10
261.033845572666
 20
139.2186617342688
 10
261.019693045811
 20
139.2675470797278
 10
261.00642743607
 20
139.3166934935308
 10
260.994053511814
 20
139.3660890547498
 10
260.9825736572309
 20
139.4157224384998
 10
260.972002177433
 20
139.4655566899038
 10
260.962341456608
 20
139.5155536619878
 10
260.953593878941
 20
139.5657020298698
 10
260.945759444432
 20
139.6159886805278
 10
260.938845305638
 20
139.6664005009388
 10
260.932846694187
 20
139.7169261662228
 10
260.927765994267
 20
139.7675525633548
 10
260.923607974247
 20
139.8182665793158
 10
260.920370249943
 20
139.8690562931758
 10
260.918057589726
 20
139.9199091879588
 10
260.9166676094089
 20
139.9708121506428
 10
260.9162026931799
 20
140.0217532603008
  0
LWPOLYLINE
  5
520
330
1F
100
AcDbEntity
  8
Sichtbare_Kanten_TC_020513_DIN_
  6
Continuous
 62
     7
100
AcDbPolyline
 90
       25
 70
     0
 43
0.0
 10
262.3162037422219
 20
140.0217532603008
 10
262.316435008244
 20
139.9962830034948
 10
262.3171311904951
 20
139.9708312241298
 10
262.318287520603
 20
139.9454050747608
 10
262.3199063827549
 20
139.9200099198078
 10
262.321985392765
 20
139.8946529118278
 10
262.324524550633
 20
139.8693400112848
 10
262.327523856358
 20
139.8440771786428
 10
262.3309809257549
 20
139.8188709704138
 10
262.334898143009
 20
139.7937279431088
 10
262.339273123936
 20
139.7686534611438
 10
262.3441034843479
 20
139.7436552731258
 10
262.349389224247
 20
139.7187381474238
 10
262.355127959446
 20
139.6939211575248
 10
262.3613149215739
 20
139.6692233769158
 10
262.367947726444
 20
139.6446501700138
 10
262.375023989872
 20
139.6202074972848
 10
262.3825437118569
 20
139.5959013191918
 10
262.390502124028
 20
139.5717381922468
 10
262.3988968421979
 20
139.5477234808668
 10
262.407730250553
 20
139.5238631455158
 10
262.416995196537
 20
139.5001637427068
 10
262.4266916801489
 20
139.4766306368568
 10
262.436817317204
 20
139.4532697884298
 10
262.447372107701
 20
139.4300877539378
  0
LWPOLYLINE
  5
521
330
1F
100
AcDbEntity
  8
Sichtbare_Kanten_TC_020513_DIN_
  6
Continuous
 62
     7
100
AcDbPolyline
 90
       25
 70
     0
 43
0.0
 10
261.4068848182719
 20
151.5819304672938
 10
261.4725977470439
 20
151.6737478462918
 10
261.54203000565
 20
151.7629271237118
 10
261.61510768433
 20
151.8493490902638
 10
261.691716342167
 20
151.9328516213158
 10
261.771534114079
 20
152.0130806652768
 10
261.854413180546
 20
152.0899158207638
 10
261.940241484837
 20
152.1632736412738
 10
262.0289069702189
 20
152.2330754486778
 10
262.1202999641459
 20
152.2992377964718
 10
262.2143060256999
 20
152.3616796223378
 10
262.310815482335
 20
152.4203186718678
 10
262.409713893132
 20
152.4750738827448
 10
262.510891585545
 20
152.5258630005578
 10
262.6141578247109
 20
152.5725715843898
 10
262.7191597511339
 20
152.6150351254208
 10
262.825749545292
 20
152.6532035557488
 10
262.933798461155
 20
152.6870315758448
 10
263.043170600132
 20
152.7164762703638
 10
263.15372052689
 20
152.7414887634968
 10
263.2651382972759
 20
152.7619963375788
 10
263.377233176426
 20
152.7779739586568
 10
263.4898692657509
 20
152.7894049374318
 10
263.602905898289
 20
152.7962749687888
 10
263.716204791264
 20
152.7985673634268
  0
LWPOLYLINE
  5
522
330
1F
100
AcDbEntity
  8
Sichtbare_Kanten_TC_020513_DIN_
  6
Continuous
 62
     7
100
AcDbPolyline
 90
       25
 70
     0
 43
0.0
 10
263.716204791264
 20
151.3985675064778
 10
263.6445576240579
 20
151.3967328755118
 10
263.573244242863
 20
151.3912492481928
 10
263.502398162083
 20
151.3821440426568
 10
263.4321552803079
 20
151.3694482533198
 10
263.3626562645
 20
151.3531904904108
 10
263.2940346290629
 20
151.3333981720668
 10
263.2264310409589
 20
151.3101022927028
 10
263.159981398778
 20
151.2833314625478
 10
263.094940810399
 20
151.2531727043848
 10
263.0316573669479
 20
151.2197941033108
 10
262.970247893528
 20
151.1832826821068
 10
262.910829215245
 20
151.1437183109978
 10
262.853513388829
 20
151.1011844364858
 10
262.798414855198
 20
151.0557633129818
 10
262.745645671086
 20
151.0075360028008
 10
262.6953202774089
 20
150.9565859524468
 10
262.647605567173
 20
150.9030562130668
 10
262.602770953373
 20
150.8472531525358
 10
262.560902266697
 20
150.7893138615348
 10
262.522075801091
 20
150.7293587414488
 10
262.4863606979409
 20
150.6675093857508
 10
262.4538284828229
 20
150.6038838116388
 10
262.4245530654951
 20
150.5386048046808
 10
262.398608355717
 20
150.4717915741658
  0
LWPOLYLINE
  5
523
330
1F
100
AcDbEntity
  8
Sichtbare_Kanten_TC_020513_DIN_
  6
Continuous
 62
     7
100
AcDbPolyline
 90
       25
 70
     0
 43
0.0
 10
262.398608355717
 20
150.4717915741658
 10
262.393713622288
 20
150.4579001156548
 10
262.3884159614599
 20
150.4422527043078
 10
262.382798819737
 20
150.4249447075588
 10
262.376952796177
 20
150.4060762612088
 10
262.3709613372839
 20
150.3857451168758
 10
262.3649174263039
 20
150.3640490261778
 10
262.358904509739
 20
150.3410881249168
 10
262.353010802464
 20
150.3169589726188
 10
262.347324519352
 20
150.2917593209008
 10
262.341933875279
 20
150.2655904976588
 10
262.336927085118
 20
150.2385478703238
 10
262.3324448158299
 20
150.2113013951048
 10
262.328653960423
 20
150.1854139057858
 10
262.325504450993
 20
150.1609771935208
 10
262.3229366828959
 20
150.1380007950528
 10
262.3208886673019
 20
150.1164942471248
 10
262.319305567936
 20
150.0964694706658
 10
262.3181277801559
 20
150.0779336182338
 10
262.3172909309431
 20
150.0608974186638
 10
262.3167425682109
 20
150.0453716007928
 10
262.316418318943
 20
150.0313657013638
 10
262.316258578495
 20
150.0188904492118
 10
262.3162085105939
 20
150.0079541889888
 10
262.3162037422219
 20
149.9985676495298
  0
SOLID
  5
524
330
1F
100
AcDbEntity
  8
Symbole_TC_020513_DIN_
 62
     7
100
AcDbTrace
 10
210.0146240016956
 20
76.30123401554329
 30
0.0
 11
209.5734754977277
 21
76.78980079754133
 31
0.0
 12
211.6495663215629
 22
78.22094518821041
 32
0.0
 13
211.6495663215629
 23
78.22094518821041
 33
0.0
  0
LEADER
  5
525
330
1F
100
AcDbEntity
  8
Symbole_TC_020513_DIN_
  6
Continuous
 62
     7
100
AcDbLeader
  3
Standard
 71
     0
 76
     3
 10
211.6495663215629
 20
78.22094518821041
 30
0.0
 10
195.981013607492
 20
64.07311761613201
 30
0.0
 10
194.281013607492
 20
64.07311761613201
 30
0.0
  0
MTEXT
  5
527
330
1F
100
AcDbEntity
  8
Symbole_TC_020513_DIN_
 62
     7
100
AcDbMText
 10
190.548426222314
 20
67.82311758632972
 30
0.0
 40
3.5
 41
0.0
 71
     1
 72
     1
  1
\U+00f8\P5,5
  7
CONVERTER_13
 73
     1
 44
0.75727272727273
  0
DIMENSION
  5
532
330
1F
100
AcDbEntity
  8
Bemaßungen_TC_020513_DIN_
100
AcDbDimension
  2
*D3
 10
167.7995870376791
 20
112.1629451882103
 30
0.0
 11
163.3802145956599
 21
97.0576300449634
 31
0.0
 70
    32
  1
PG21
 71
     5
 42
-1.0
 53
90.0
  3
ME10_DIM_10
100
AcDbAlignedDimension
 13
151.799587037679
 23
83.0589451882104
 33
0.0
 14
151.799587037679
 24
112.1629451882098
 34
0.0
 50
90.0
100
AcDbRotatedDimension
  0
DIMENSION
  5
53D
330
1F
100
AcDbEntity
  8
Bemaßungen_TC_020513_DIN_
100
AcDbDimension
  2
*D4
 10
24.79958703767924
 20
78.22094518821021
 30
0.0
 11
20.42557612362737
 21
119.4195604678828
 31
0.0
 70
    32
  1
81
 71
     5
 42
-1.0
 53
90.0
  3
ME10_DIM_11
100
AcDbAlignedDimension
 13
43.79958703767926
 23
159.2209451882108
 33
0.0
 14
34.79958703767926
 24
78.22094518821041
 34
0.0
 50
90.0
100
AcDbRotatedDimension
  0
DIMENSION
  5
548
330
1F
100
AcDbEntity
  8
Bemaßungen_TC_020513_DIN_
100
AcDbDimension
  2
*D5
 10
280.0835162932841
 20
169.2209451882108
 30
0.0
 11
243.251207064585
 21
173.5209451882108
 31
0.0
 70
    32
  1
74
 71
     5
 42
-1.0
 53
0.00013888888889
  3
ME10_DIM_12
100
AcDbAlignedDimension
 13
205.649566321561
 23
78.22094518821041
 33
0.0
 14
280.083516293284
 24
123.2209451882108
 34
0.0
100
AcDbRotatedDimension
  0
DIMENSION
  5
553
330
1F
100
AcDbEntity
  8
Bemaßungen_TC_020513_DIN_
100
AcDbDimension
  2
*D6
 10
39.79958703767928
 20
169.2209451882099
 30
0.0
 11
93.90284761066698
 21
173.5949561022618
 31
0.0
 70
    32
  1
107
 71
     5
 42
-1.0
 53
0.00013888888889
  3
ME10_DIM_13
100
AcDbAlignedDimension
 13
146.799587037679
 23
134.2209451882108
 33
0.0
 14
39.79958703767926
 24
134.2209451882108
 34
0.0
100
AcDbRotatedDimension
  0
DIMENSION
  5
55E
330
1F
100
AcDbEntity
  8
Bemaßungen_TC_020513_DIN_
100
AcDbDimension
  2
*D7
 10
183.6495663215613
 20
78.2209451882105
 30
0.0
 11
179.273167958669
 21
110.0745741104478
 31
0.0
 70
    32
  1
63
 71
     5
 42
-1.0
 53
90.0
  3
ME10_DIM_14
100
AcDbAlignedDimension
 13
214.9995663215659
 23
141.2209451882108
 33
0.0
 14
205.649566321561
 24
78.22094518821041
 34
0.0
 50
90.0
100
AcDbRotatedDimension
  0
DIMENSION
  5
569
330
1F
100
AcDbEntity
  8
Bemaßungen_TC_020513_DIN_
100
AcDbDimension
  2
*D8
 10
195.649566321561
 20
82.22094518821035
 30
0.0
 11
191.3495663215609
 21
80.44550862613671
 31
0.0
 70
    32
  1
4
 71
     5
 42
-1.0
 53
90.0
  3
ME10_DIM_15
100
AcDbAlignedDimension
 13
205.649566321561
 23
78.22094518821041
 33
0.0
 14
205.649566321561
 24
82.22094518821041
 34
0.0
 50
90.0
100
AcDbRotatedDimension
  0
DIMENSION
  5
574
330
1F
100
AcDbEntity
  8
Bemaßungen_TC_020513_DIN_
100
AcDbDimension
  2
*D9
 10
211.6495663215635
 20
64.22094518821035
 30
0.0
 11
234.429184329749
 21
68.5806314092199
 31
0.0
 70
    32
  1
45
 71
     5
 42
-1.0
 53
0.00013888888889
  3
ME10_DIM_16
100
AcDbAlignedDimension
 13
256.649566321563
 23
80.22094518821041
 33
0.0
 14
211.6495663215629
 24
80.22094518821041
 34
0.0
100
AcDbRotatedDimension
  0
DIMENSION
  5
57F
330
1F
100
AcDbEntity
  8
Bemaßungen_TC_020513_DIN_
100
AcDbDimension
  2
*D10
 10
205.6495663215611
 20
56.22094518821034
 30
0.0
 11
234.51274503916
 21
60.5806314092199
 31
0.0
 70
    32
  1
57
 71
     5
 42
-1.0
 53
0.00013888888889
  3
ME10_DIM_17
100
AcDbAlignedDimension
 13
262.649566321561
 23
78.22094518821041
 33
0.0
 14
205.649566321561
 24
78.22094518821041
 34
0.0
100
AcDbRotatedDimension
  0
DIMENSION
  5
58A
330
1F
100
AcDbEntity
  8
Bemaßungen_TC_020513_DIN_
100
AcDbDimension
  2
*D11
 10
40.79958703767925
 20
64.22094518821037
 30
0.0
 11
93.82721664204485
 21
68.5949561022622
 31
0.0
 70
    32
  1
105
 71
     5
 42
-1.0
 53
0.00013888888889
  3
ME10_DIM_18
100
AcDbAlignedDimension
 13
145.799587037679
 23
80.22094518821041
 33
0.0
 14
40.79958703767926
 24
80.22094518821041
 34
0.0
100
AcDbRotatedDimension
  0
DIMENSION
  5
595
330
1F
100
AcDbEntity
  8
Bemaßungen_TC_020513_DIN_
100
AcDbDimension
  2
*D12
 10
34.79958703767928
 20
56.21893952165021
 30
0.0
 11
93.90284761066698
 21
60.5332642146925
 31
0.0
 70
    32
  1
117
 71
     5
 42
-1.0
 53
0.00013888888889
  3
ME10_DIM_19
100
AcDbAlignedDimension
 13
151.799587037679
 23
80.22094518821041
 33
0.0
 14
34.79958703767926
 24
80.22094518821041
 34
0.0
100
AcDbRotatedDimension
  0
ENDSEC
  0
SECTION
  2
OBJECTS
  0
DICTIONARY
  5
C
330
0
100
AcDbDictionary
281
     1
  3
ACAD_GROUP
350
D
  3
ACAD_LAYOUT
350
1A
  3
ACAD_MATERIAL
350
3B
  3
ACAD_MLEADERSTYLE
350
598
  3
ACAD_MLINESTYLE
350
17
  3
ACAD_PLOTSETTINGS
350
19
  3
ACAD_PLOTSTYLENAME
350
E
  3
ACAD_VISUALSTYLE
350
2A
  3
AcDbVariableDictionary
350
596
  0
DICTIONARY
  5
D
102
{ACAD_REACTORS
330
C
102
}
330
C
100
AcDbDictionary
281
     1
  0
DICTIONARY
  5
1A
102
{ACAD_REACTORS
330
C
102
}
330
C
100
AcDbDictionary
281
     1
  3
Layout1
350
1E
  3
Layout2
350
26
  3
Model
350
22
  0
DICTIONARY
  5
3B
102
{ACAD_REACTORS
330
C
102
}
330
C
100
AcDbDictionary
281
     1
  3
ByBlock
350
3D
  3
ByLayer
350
3C
  3
Global
350
3E
  0
DICTIONARY
  5
598
102
{ACAD_REACTORS
330
C
102
}
330
C
100
AcDbDictionary
281
     1
  0
DICTIONARY
  5
17
102
{ACAD_REACTORS
330
C
102
}
330
C
100
AcDbDictionary
281
     1
  3
Standard
350
18
  0
DICTIONARY
  5
19
102
{ACAD_REACTORS
330
C
102
}
330
C
100
AcDbDictionary
281
     1
  0
ACDBDICTIONARYWDFLT
  5
E
102
{ACAD_REACTORS
330
C
102
}
330
C
100
AcDbDictionary
281
     1
  3
Normal
350
F
100
AcDbDictionaryWithDefault
340
F
  0
DICTIONARY
  5
2A
102
{ACAD_REACTORS
330
C
102
}
330
C
100
AcDbDictionary
281
     1
  3
2dWireframe
350
2F
  3
3D Hidden
350
31
  3
3dWireframe
350
30
  3
Basic
350
32
  3
Brighten
350
36
  3
ColorChange
350
3A
  3
Conceptual
350
34
  3
Dim
350
35
  3
Facepattern
350
39
  3
Flat
350
2B
  3
FlatWithEdges
350
2C
  3
Gouraud
350
2D
  3
GouraudWithEdges
350
2E
  3
Linepattern
350
38
  3
Realistic
350
33
  3
Thicken
350
37
  0
DICTIONARY
  5
596
102
{ACAD_REACTORS
330
C
102
}
330
C
100
AcDbDictionary
281
     1
  3
DIMASSOC
350
599
  3
HIDETEXT
350
59A
  0
LAYOUT
  5
1E
102
{ACAD_REACTORS
330
1A
102
}
330
1A
100
AcDbPlotSettings
  1

  2
none_device
  4

  6

 40
0.0
 41
0.0
 42
0.0
 43
0.0
 44
0.0
 45
0.0
 46
0.0
 47
0.0
 48
0.0
 49
0.0
140
0.0
141
0.0
142
1.0
143
1.0
 70
   688
 72
     0
 73
     0
 74
     5
  7

 75
    16
147
1.0
148
0.0
149
0.0
100
AcDbLayout
  1
Layout1
 70
     1
 71
     1
 10
0.0
 20
0.0
 11
12.0
 21
9.0
 12
0.0
 22
0.0
 32
0.0
 14
1.00000000000000E+20
 24
1.00000000000000E+20
 34
1.00000000000000E+20
 15
-1.00000000000000E+20
 25
-1.00000000000000E+20
 35
-1.00000000000000E+20
146
0.0
 13
0.0
 23
0.0
 33
0.0
 16
1.0
 26
0.0
 36
0.0
 17
0.0
 27
1.0
 37
0.0
 76
     0
330
1B
  0
LAYOUT
  5
26
102
{ACAD_REACTORS
330
1A
102
}
330
1A
100
AcDbPlotSettings
  1

  2
none_device
  4

  6

 40
0.0
 41
0.0
 42
0.0
 43
0.0
 44
0.0
 45
0.0
 46
0.0
 47
0.0
 48
0.0
 49
0.0
140
0.0
141
0.0
142
1.0
143
1.0
 70
   688
 72
     0
 73
     0
 74
     5
  7

 75
    16
147
1.0
148
0.0
149
0.0
100
AcDbLayout
  1
Layout2
 70
     1
 71
     2
 10
0.0
 20
0.0
 11
0.0
 21
0.0
 12
0.0
 22
0.0
 32
0.0
 14
0.0
 24
0.0
 34
0.0
 15
0.0
 25
0.0
 35
0.0
146
0.0
 13
0.0
 23
0.0
 33
0.0
 16
1.0
 26
0.0
 36
0.0
 17
0.0
 27
1.0
 37
0.0
 76
     0
330
23
  0
LAYOUT
  5
22
102
{ACAD_REACTORS
330
1A
102
}
330
1A
100
AcDbPlotSettings
  1

  2
none_device
  4

  6

 40
0.0
 41
0.0
 42
0.0
 43
0.0
 44
0.0
 45
0.0
 46
0.0
 47
0.0
 48
0.0
 49
0.0
140
0.0
141
0.0
142
1.0
143
1.0
 70
  1712
 72
     0
 73
     0
 74
     0
  7

 75
     0
147
1.0
148
0.0
149
0.0
100
AcDbLayout
  1
Model
 70
     1
 71
     0
 10
0.0
 20
0.0
 11
12.0
 21
9.0
 12
0.0
 22
0.0
 32
0.0
 14
0.0
 24
0.0
 34
0.0
 15
297.0000000000002
 25
210.0000000000001
 35
0.0
146
0.0
 13
0.0
 23
0.0
 33
0.0
 16
1.0
 26
0.0
 36
0.0
 17
0.0
 27
1.0
 37
0.0
 76
     0
330
1F
331
29
  0
MATERIAL
  5
3D
102
{ACAD_REACTORS
330
3B
102
}
102
{ACAD_XDICTIONARY
360
5BD
102
}
330
3B
100
AcDbMaterial
  1
ByBlock
  0
MATERIAL
  5
3C
102
{ACAD_REACTORS
330
3B
102
}
102
{ACAD_XDICTIONARY
360
5BB
102
}
330
3B
100
AcDbMaterial
  1
ByLayer
  0
MATERIAL
  5
3E
102
{ACAD_REACTORS
330
3B
102
}
102
{ACAD_XDICTIONARY
360
5BF
102
}
330
3B
100
AcDbMaterial
  1
Global
  0
MLINESTYLE
  5
18
102
{ACAD_REACTORS
330
17
102
}
330
17
100
AcDbMlineStyle
  2
Standard
 70
     0
  3

 62
   256
 51
90.0
 52
90.0
 71
     2
 49
0.5
 62
   256
  6
BYLAYER
 49
-0.5
 62
   256
  6
BYLAYER
  0
ACDBPLACEHOLDER
  5
F
102
{ACAD_REACTORS
330
E
102
}
330
E
  0
VISUALSTYLE
  5
2F
102
{ACAD_REACTORS
330
2A
102
}
102
{ACAD_XDICTIONARY
360
5A3
102
}
330
2A
100
AcDbVisualStyle
  2
2dWireframe
 70
     4
 71
     0
 72
     2
 73
     0
 90
        0
 40
-0.6
 41
-30.0
 62
     5
 63
     7
 74
     1
 91
        4
 64
     7
 65
   257
 75
     1
175
     1
 42
1.0
 92
        0
 66
   257
 43
1.0
 76
     1
 77
     6
 78
     2
 67
     7
 79
     5
170
     0
171
     0
290
     0
174
     0
 93
        1
 44
0.0
173
     0
291
     0
 45
0.0
1001
ACAD
1000
AcDbSavedByObjectVersion
1070
     0
  0
VISUALSTYLE
  5
31
102
{ACAD_REACTORS
330
2A
102
}
102
{ACAD_XDICTIONARY
360
5A7
102
}
330
2A
100
AcDbVisualStyle
  2
3D Hidden
 70
     6
 71
     1
 72
     2
 73
     2
 90
        0
 40
-0.6
 41
-30.0
 62
     5
 63
     7
 74
     2
 91
        2
 64
     7
 65
   257
 75
     2
175
     1
 42
40.0
 92
        0
 66
   257
 43
1.0
 76
     1
 77
     6
 78
     2
 67
     7
 79
     3
170
     0
171
     0
290
     0
174
     0
 93
        1
 44
0.0
173
     0
291
     0
 45
0.0
1001
ACAD
1000
AcDbSavedByObjectVersion
1070
     0
  0
VISUALSTYLE
  5
30
102
{ACAD_REACTORS
330
2A
102
}
102
{ACAD_XDICTIONARY
360
5A5
102
}
330
2A
100
AcDbVisualStyle
  2
3dWireframe
 70
     5
 71
     0
 72
     2
 73
     0
 90
        0
 40
-0.6
 41
-30.0
 62
     5
 63
     7
 74
     1
 91
        4
 64
     7
 65
   257
 75
     1
175
     1
 42
1.0
 92
        0
 66
   257
 43
1.0
 76
     1
 77
     6
 78
     2
 67
     7
 79
     5
170
     0
171
     0
290
     0
174
     0
 93
        1
 44
0.0
173
     0
291
     0
 45
0.0
1001
ACAD
1000
AcDbSavedByObjectVersion
1070
     0
  0
VISUALSTYLE
  5
32
102
{ACAD_REACTORS
330
2A
102
}
102
{ACAD_XDICTIONARY
360
5A9
102
}
330
2A
100
AcDbVisualStyle
  2
Basic
 70
     7
 71
     1
 72
     0
 73
     1
 90
        0
 40
-0.6
 41
-30.0
 62
     5
 63
     7
 74
     0
 91
        4
 64
     7
 65
   257
 75
     1
175
     1
 42
1.0
 92
        8
 66
     7
 43
1.0
 76
     1
 77
     6
 78
     2
 67
     7
 79
     5
170
     0
171
     0
290
     0
174
     0
 93
        1
 44
0.0
173
     0
291
     1
 45
0.0
1001
ACAD
1000
AcDbSavedByObjectVersion
1070
     0
  0
VISUALSTYLE
  5
36
102
{ACAD_REACTORS
330
2A
102
}
102
{ACAD_XDICTIONARY
360
5B1
102
}
330
2A
100
AcDbVisualStyle
  2
Brighten
 70
    12
 71
     2
 72
     2
 73
     0
 90
        0
 40
-0.6
 41
-30.0
 62
     5
 63
     7
 74
     1
 91
        4
 64
     7
 65
   257
 75
     1
175
     1
 42
1.0
 92
        8
 66
     7
 43
1.0
 76
     1
 77
     6
 78
     2
 67
     7
 79
     5
170
     0
171
     0
290
     0
174
     0
 93
        1
 44
50.0
173
     0
291
     1
 45
0.0
1001
ACAD
1000
AcDbSavedByObjectVersion
1070
     0
  0
VISUALSTYLE
  5
3A
102
{ACAD_REACTORS
330
2A
102
}
102
{ACAD_XDICTIONARY
360
5B9
102
}
330
2A
100
AcDbVisualStyle
  2
ColorChange
 70
    16
 71
     2
 72
     2
 73
     3
 90
        0
 40
-0.6
 41
-30.0
 62
     5
 63
     8
 74
     1
 91
        4
 64
     7
 65
   257
 75
     1
175
     1
 42
1.0
 92
        8
 66
     8
 43
1.0
 76
     1
 77
     6
 78
     2
 67
     7
 79
     5
170
     0
171
     0
290
     0
174
     0
 93
        1
 44
0.0
173
     0
291
     1
 45
0.0
1001
ACAD
1000
AcDbSavedByObjectVersion
1070
     0
  0
VISUALSTYLE
  5
34
102
{ACAD_REACTORS
330
2A
102
}
102
{ACAD_XDICTIONARY
360
5AD
102
}
330
2A
100
AcDbVisualStyle
  2
Conceptual
 70
     9
 71
     3
 72
     2
 73
     0
 90
        0
 40
-0.6
 41
-30.0
 62
     5
 63
     7
 74
     2
 91
        2
 64
     7
 65
   257
 75
     1
175
     1
 42
40.0
 92
        8
 66
     7
 43
1.0
 76
     1
 77
     6
 78
     2
 67
     7
 79
     3
170
     0
171
     0
290
     0
174
     0
 93
        1
 44
0.0
173
     0
291
     0
 45
0.0
1001
ACAD
1000
AcDbSavedByObjectVersion
1070
     0
  0
VISUALSTYLE
  5
35
102
{ACAD_REACTORS
330
2A
102
}
102
{ACAD_XDICTIONARY
360
5AF
102
}
330
2A
100
AcDbVisualStyle
  2
Dim
 70
    11
 71
     2
 72
     2
 73
     0
 90
        0
 40
-0.6
 41
-30.0
 62
     5
 63
     7
 74
     1
 91
        4
 64
     7
 65
   257
 75
     1
175
     1
 42
1.0
 92
        8
 66
     7
 43
1.0
 76
     1
 77
     6
 78
     2
 67
     7
 79
     5
170
     0
171
     0
290
     0
174
     0
 93
        1
 44
-50.0
173
     0
291
     1
 45
0.0
1001
ACAD
1000
AcDbSavedByObjectVersion
1070
     0
  0
VISUALSTYLE
  5
39
102
{ACAD_REACTORS
330
2A
102
}
102
{ACAD_XDICTIONARY
360
5B7
102
}
330
2A
100
AcDbVisualStyle
  2
Facepattern
 70
    15
 71
     2
 72
     2
 73
     0
 90
        0
 40
-0.6
 41
-30.0
 62
     5
 63
     7
 74
     1
 91
        4
 64
     7
 65
   257
 75
     1
175
     1
 42
1.0
 92
        8
 66
     7
 43
1.0
 76
     1
 77
     6
 78
     2
 67
     7
 79
     5
170
     0
171
     0
290
     0
174
     0
 93
        1
 44
0.0
173
     0
291
     1
 45
0.0
1001
ACAD
1000
AcDbSavedByObjectVersion
1070
     0
  0
VISUALSTYLE
  5
2B
102
{ACAD_REACTORS
330
2A
102
}
102
{ACAD_XDICTIONARY
360
59B
102
}
330
2A
100
AcDbVisualStyle
  2
Flat
 70
     0
 71
     2
 72
     1
 73
     1
 90
        2
 40
-0.6
 41
30.0
 62
     5
 63
     7
 74
     0
 91
        4
 64
     7
 65
   257
 75
     1
175
     1
 42
1.0
 92
        8
 66
     7
 43
1.0
 76
     1
 77
     6
 78
     2
 67
     7
 79
     5
170
     0
171
     0
290
     0
174
     0
 93
       13
 44
0.0
173
     0
291
     1
 45
0.0
1001
ACAD
1000
AcDbSavedByObjectVersion
1070
     0
  0
VISUALSTYLE
  5
2C
102
{ACAD_REACTORS
330
2A
102
}
102
{ACAD_XDICTIONARY
360
59D
102
}
330
2A
100
AcDbVisualStyle
  2
FlatWithEdges
 70
     1
 71
     2
 72
     1
 73
     1
 90
        2
 40
-0.6
 41
30.0
 62
     5
 63
     7
 74
     1
 91
        4
 64
     7
 65
   257
 75
     1
175
     1
 42
1.0
 92
        0
 66
   257
 43
1.0
 76
     1
 77
     6
 78
     2
 67
     7
 79
     5
170
     0
171
     0
290
     0
174
     0
 93
       13
 44
0.0
173
     0
291
     1
 45
0.0
1001
ACAD
1000
AcDbSavedByObjectVersion
1070
     0
  0
VISUALSTYLE
  5
2D
102
{ACAD_REACTORS
330
2A
102
}
102
{ACAD_XDICTIONARY
360
59F
102
}
330
2A
100
AcDbVisualStyle
  2
Gouraud
 70
     2
 71
     2
 72
     2
 73
     1
 90
        2
 40
-0.6
 41
30.0
 62
     5
 63
     7
 74
     0
 91
        4
 64
     7
 65
   257
 75
     1
175
     1
 42
1.0
 92
        0
 66
     7
 43
1.0
 76
     1
 77
     6
 78
     2
 67
     7
 79
     5
170
     0
171
     0
290
     0
174
     0
 93
       13
 44
0.0
173
     0
291
     1
 45
0.0
1001
ACAD
1000
AcDbSavedByObjectVersion
1070
     0
  0
VISUALSTYLE
  5
2E
102
{ACAD_REACTORS
330
2A
102
}
102
{ACAD_XDICTIONARY
360
5A1
102
}
330
2A
100
AcDbVisualStyle
  2
GouraudWithEdges
 70
     3
 71
     2
 72
     2
 73
     1
 90
        2
 40
-0.6
 41
30.0
 62
     5
 63
     7
 74
     1
 91
        4
 64
     7
 65
   257
 75
     1
175
     1
 42
1.0
 92
        0
 66
   257
 43
1.0
 76
     1
 77
     6
 78
     2
 67
     7
 79
     5
170
     0
171
     0
290
     0
174
     0
 93
       13
 44
0.0
173
     0
291
     1
 45
0.0
1001
ACAD
1000
AcDbSavedByObjectVersion
1070
     0
  0
VISUALSTYLE
  5
38
102
{ACAD_REACTORS
330
2A
102
}
102
{ACAD_XDICTIONARY
360
5B5
102
}
330
2A
100
AcDbVisualStyle
  2
Linepattern
 70
    14
 71
     2
 72
     2
 73
     0
 90
        0
 40
-0.6
 41
-30.0
 62
     5
 63
     7
 74
     1
 91
        4
 64
     7
 65
   257
 75
     7
175
     7
 42
1.0
 92
        8
 66
     7
 43
1.0
 76
     1
 77
     6
 78
     2
 67
     7
 79
     5
170
     0
171
     0
290
     0
174
     0
 93
        1
 44
0.0
173
     0
291
     1
 45
0.0
1001
ACAD
1000
AcDbSavedByObjectVersion
1070
     0
  0
VISUALSTYLE
  5
33
102
{ACAD_REACTORS
330
2A
102
}
102
{ACAD_XDICTIONARY
360
5AB
102
}
330
2A
100
AcDbVisualStyle
  2
Realistic
 70
     8
 71
     2
 72
     2
 73
     0
 90
        0
 40
-0.6
 41
-30.0
 62
     5
 63
     7
 74
     1
 91
        0
 64
     7
 65
   257
 75
     1
175
     1
 42
1.0
 92
        8
 66
     8
 43
1.0
 76
     1
 77
     6
 78
     2
 67
     7
 79
     5
170
     0
171
     0
290
     0
174
     0
 93
       13
 44
0.0
173
     0
291
     0
 45
0.0
1001
ACAD
1000
AcDbSavedByObjectVersion
1070
     0
  0
VISUALSTYLE
  5
37
102
{ACAD_REACTORS
330
2A
102
}
102
{ACAD_XDICTIONARY
360
5B3
102
}
330
2A
100
AcDbVisualStyle
  2
Thicken
 70
    13
 71
     2
 72
     2
 73
     0
 90
        0
 40
-0.6
 41
-30.0
 62
     5
 63
     7
 74
     1
 91
        4
 64
     7
 65
   257
 75
     1
175
     1
 42
1.0
 92
       12
 66
     7
 43
1.0
 76
     1
 77
     6
 78
     2
 67
     7
 79
     5
170
     0
171
     0
290
     0
174
     0
 93
        1
 44
0.0
173
     0
291
     1
 45
0.0
1001
ACAD
1000
AcDbSavedByObjectVersion
1070
     0
  0
DICTIONARYVAR
  5
599
102
{ACAD_REACTORS
330
596
102
}
330
596
100
DictionaryVariables
280
     0
  1
2
  0
DICTIONARYVAR
  5
59A
102
{ACAD_REACTORS
330
596
102
}
330
596
100
DictionaryVariables
280
     0
  1
1
  0
DICTIONARY
  5
5BD
330
3D
100
AcDbDictionary
280
     1
281
     1
  3
ACAD_XREC_ROUNDTRIP
360
5BE
  0
DICTIONARY
  5
5BB
330
3C
100
AcDbDictionary
280
     1
281
     1
  3
ACAD_XREC_ROUNDTRIP
360
5BC
  0
DICTIONARY
  5
5BF
330
3E
100
AcDbDictionary
280
     1
281
     1
  3
ACAD_XREC_ROUNDTRIP
360
5C0
  0
DICTIONARY
  5
5A3
330
2F
100
AcDbDictionary
280
     1
281
     1
  3
ACAD_XREC_ROUNDTRIP
360
5A4
  0
DICTIONARY
  5
5A7
330
31
100
AcDbDictionary
280
     1
281
     1
  3
ACAD_XREC_ROUNDTRIP
360
5A8
  0
DICTIONARY
  5
5A5
330
30
100
AcDbDictionary
280
     1
281
     1
  3
ACAD_XREC_ROUNDTRIP
360
5A6
  0
DICTIONARY
  5
5A9
330
32
100
AcDbDictionary
280
     1
281
     1
  3
ACAD_XREC_ROUNDTRIP
360
5AA
  0
DICTIONARY
  5
5B1
330
36
100
AcDbDictionary
280
     1
281
     1
  3
ACAD_XREC_ROUNDTRIP
360
5B2
  0
DICTIONARY
  5
5B9
330
3A
100
AcDbDictionary
280
     1
281
     1
  3
ACAD_XREC_ROUNDTRIP
360
5BA
  0
DICTIONARY
  5
5AD
330
34
100
AcDbDictionary
280
     1
281
     1
  3
ACAD_XREC_ROUNDTRIP
360
5AE
  0
DICTIONARY
  5
5AF
330
35
100
AcDbDictionary
280
     1
281
     1
  3
ACAD_XREC_ROUNDTRIP
360
5B0
  0
DICTIONARY
  5
5B7
330
39
100
AcDbDictionary
280
     1
281
     1
  3
ACAD_XREC_ROUNDTRIP
360
5B8
  0
DICTIONARY
  5
59B
330
2B
100
AcDbDictionary
280
     1
281
     1
  3
ACAD_XREC_ROUNDTRIP
360
59C
  0
DICTIONARY
  5
59D
330
2C
100
AcDbDictionary
280
     1
281
     1
  3
ACAD_XREC_ROUNDTRIP
360
59E
  0
DICTIONARY
  5
59F
330
2D
100
AcDbDictionary
280
     1
281
     1
  3
ACAD_XREC_ROUNDTRIP
360
5A0
  0
DICTIONARY
  5
5A1
330
2E
100
AcDbDictionary
280
     1
281
     1
  3
ACAD_XREC_ROUNDTRIP
360
5A2
  0
DICTIONARY
  5
5B5
330
38
100
AcDbDictionary
280
     1
281
     1
  3
ACAD_XREC_ROUNDTRIP
360
5B6
  0
DICTIONARY
  5
5AB
330
33
100
AcDbDictionary
280
     1
281
     1
  3
ACAD_XREC_ROUNDTRIP
360
5AC
  0
DICTIONARY
  5
5B3
330
37
100
AcDbDictionary
280
     1
281
     1
  3
ACAD_XREC_ROUNDTRIP
360
5B4
  0
XRECORD
  5
5BE
102
{ACAD_REACTORS
330
5BD
102
}
330
5BD
100
AcDbXrecord
280
     1
102
MATERIAL
148
0.0
149
0.0
149
0.0
 93
        0
 94
      127
282
     0
 72
     1
 77
     1
171
     1
175
     1
179
     1
273
     0
  0
XRECORD
  5
5BC
102
{ACAD_REACTORS
330
5BB
102
}
330
5BB
100
AcDbXrecord
280
     1
102
MATERIAL
148
0.0
149
0.0
149
0.0
 93
        0
 94
      127
282
     0
 72
     1
 77
     1
171
     1
175
     1
179
     1
273
     0
  0
XRECORD
  5
5C0
102
{ACAD_REACTORS
330
5BF
102
}
330
5BF
100
AcDbXrecord
280
     1
102
MATERIAL
148
0.0
149
0.0
149
0.0
 93
        0
 94
      127
282
     0
 72
     1
 77
     1
171
     1
175
     1
179
     1
273
     0
  0
XRECORD
  5
5A4
102
{ACAD_REACTORS
330
5A3
102
}
330
5A3
100
AcDbXrecord
280
     1
102
RTVSPropertyOp0
 70
     1
102
RTVSPropertyOp1
 70
     1
102
RTVSPropertyOp2
 70
     1
102
RTVSPropertyOp3
 70
     1
102
RTVSPropertyOp4
 70
     1
102
RTVSPropertyOp5
 70
     1
102
RTVSPropertyOp6
 70
     1
102
RTVSPropertyOp7
 70
     1
102
RTVSPropertyOp8
 70
     1
102
RTVSPropertyOp9
 70
     1
102
RTVSPropertyOp10
 70
     1
102
RTVSPropertyOp11
 70
     1
102
RTVSPropertyOp12
 70
     1
102
RTVSPropertyOp13
 70
     1
102
RTVSPropertyOp14
 70
     1
102
RTVSPropertyOp15
 70
     1
102
RTVSPropertyOp16
 70
     1
102
RTVSPropertyOp17
 70
     1
102
RTVSPropertyOp18
 70
     1
102
RTVSPropertyOp19
 70
     1
102
RTVSPropertyOp20
 70
     1
102
RTVSPropertyOp21
 70
     1
102
RTVSPropertyOp22
 70
     1
102
RTVSPropertyOp23
 70
     1
102
RTVSPropertyOp24
 70
     1
102
RTVSPropertyOp25
 70
     1
102
RTVSPropertyOp26
 70
     1
102
RTVSPropertyOp27
 70
     1
102
RTVSPropertyOp28
 70
     1
102
RTVSPropertyOp29
 70
     1
102
RTVSPropertyOp30
 70
     1
102
RTVSPropertyOp31
 70
     1
102
RTVSPropertyOp32
 70
     1
  0
XRECORD
  5
5A8
102
{ACAD_REACTORS
330
5A7
102
}
330
5A7
100
AcDbXrecord
280
     1
102
RTVSPropertyOp0
 70
     1
102
RTVSPropertyOp1
 70
     1
102
RTVSPropertyOp2
 70
     1
102
RTVSPropertyOp3
 70
     1
102
RTVSPropertyOp4
 70
     1
102
RTVSPropertyOp5
 70
     1
102
RTVSPropertyOp6
 70
     1
102
RTVSPropertyOp7
 70
     1
102
RTVSPropertyOp8
 70
     1
102
RTVSPropertyOp9
 70
     1
102
RTVSPropertyOp10
 70
     1
102
RTVSPropertyOp11
 70
     1
102
RTVSPropertyOp12
 70
     1
102
RTVSPropertyOp13
 70
     1
102
RTVSPropertyOp14
 70
     1
102
RTVSPropertyOp15
 70
     1
102
RTVSPropertyOp16
 70
     1
102
RTVSPropertyOp17
 70
     1
102
RTVSPropertyOp18
 70
     1
102
RTVSPropertyOp19
 70
     1
102
RTVSPropertyOp20
 70
     1
102
RTVSPropertyOp21
 70
     1
102
RTVSPropertyOp22
 70
     1
102
RTVSPropertyOp23
 70
     1
102
RTVSPropertyOp24
 70
     1
102
RTVSPropertyOp25
 70
     1
102
RTVSPropertyOp26
 70
     1
102
RTVSPropertyOp27
 70
     1
102
RTVSPropertyOp28
 70
     1
102
RTVSPropertyOp29
 70
     1
102
RTVSPropertyOp30
 70
     1
102
RTVSPropertyOp31
 70
     1
102
RTVSPropertyOp32
 70
     1
  0
XRECORD
  5
5A6
102
{ACAD_REACTORS
330
5A5
102
}
330
5A5
100
AcDbXrecord
280
     1
102
RTVSPropertyOp0
 70
     1
102
RTVSPropertyOp1
 70
     1
102
RTVSPropertyOp2
 70
     1
102
RTVSPropertyOp3
 70
     1
102
RTVSPropertyOp4
 70
     1
102
RTVSPropertyOp5
 70
     1
102
RTVSPropertyOp6
 70
     1
102
RTVSPropertyOp7
 70
     1
102
RTVSPropertyOp8
 70
     1
102
RTVSPropertyOp9
 70
     1
102
RTVSPropertyOp10
 70
     1
102
RTVSPropertyOp11
 70
     1
102
RTVSPropertyOp12
 70
     1
102
RTVSPropertyOp13
 70
     1
102
RTVSPropertyOp14
 70
     1
102
RTVSPropertyOp15
 70
     1
102
RTVSPropertyOp16
 70
     1
102
RTVSPropertyOp17
 70
     1
102
RTVSPropertyOp18
 70
     1
102
RTVSPropertyOp19
 70
     1
102
RTVSPropertyOp20
 70
     1
102
RTVSPropertyOp21
 70
     1
102
RTVSPropertyOp22
 70
     1
102
RTVSPropertyOp23
 70
     1
102
RTVSPropertyOp24
 70
     1
102
RTVSPropertyOp25
 70
     1
102
RTVSPropertyOp26
 70
     1
102
RTVSPropertyOp27
 70
     1
102
RTVSPropertyOp28
 70
     1
102
RTVSPropertyOp29
 70
     1
102
RTVSPropertyOp30
 70
     1
102
RTVSPropertyOp31
 70
     1
102
RTVSPropertyOp32
 70
     1
  0
XRECORD
  5
5AA
102
{ACAD_REACTORS
330
5A9
102
}
330
5A9
100
AcDbXrecord
280
     1
102
RTVSPropertyOp0
 70
     1
102
RTVSPropertyOp1
 70
     1
102
RTVSPropertyOp2
 70
     1
102
RTVSPropertyOp3
 70
     1
102
RTVSPropertyOp4
 70
     1
102
RTVSPropertyOp5
 70
     1
102
RTVSPropertyOp6
 70
     1
102
RTVSPropertyOp7
 70
     1
102
RTVSPropertyOp8
 70
     1
102
RTVSPropertyOp9
 70
     1
102
RTVSPropertyOp10
 70
     1
102
RTVSPropertyOp11
 70
     1
102
RTVSPropertyOp12
 70
     1
102
RTVSPropertyOp13
 70
     1
102
RTVSPropertyOp14
 70
     1
102
RTVSPropertyOp15
 70
     1
102
RTVSPropertyOp16
 70
     1
102
RTVSPropertyOp17
 70
     1
102
RTVSPropertyOp18
 70
     1
102
RTVSPropertyOp19
 70
     1
102
RTVSPropertyOp20
 70
     1
102
RTVSPropertyOp21
 70
     1
102
RTVSPropertyOp22
 70
     1
102
RTVSPropertyOp23
 70
     1
102
RTVSPropertyOp24
 70
     1
102
RTVSPropertyOp25
 70
     1
102
RTVSPropertyOp26
 70
     1
102
RTVSPropertyOp27
 70
     1
102
RTVSPropertyOp28
 70
     1
102
RTVSPropertyOp29
 70
     1
102
RTVSPropertyOp30
 70
     1
102
RTVSPropertyOp31
 70
     1
102
RTVSPropertyOp32
 70
     1
  0
XRECORD
  5
5B2
102
{ACAD_REACTORS
330
5B1
102
}
330
5B1
100
AcDbXrecord
280
     1
102
RTVSPropertyOp0
 70
     1
102
RTVSPropertyOp1
 70
     1
102
RTVSPropertyOp2
 70
     1
102
RTVSPropertyOp3
 70
     1
102
RTVSPropertyOp4
 70
     1
102
RTVSPropertyOp5
 70
     1
102
RTVSPropertyOp6
 70
     1
102
RTVSPropertyOp7
 70
     1
102
RTVSPropertyOp8
 70
     1
102
RTVSPropertyOp9
 70
     1
102
RTVSPropertyOp10
 70
     1
102
RTVSPropertyOp11
 70
     1
102
RTVSPropertyOp12
 70
     1
102
RTVSPropertyOp13
 70
     1
102
RTVSPropertyOp14
 70
     1
102
RTVSPropertyOp15
 70
     1
102
RTVSPropertyOp16
 70
     1
102
RTVSPropertyOp17
 70
     1
102
RTVSPropertyOp18
 70
     1
102
RTVSPropertyOp19
 70
     1
102
RTVSPropertyOp20
 70
     1
102
RTVSPropertyOp21
 70
     1
102
RTVSPropertyOp22
 70
     1
102
RTVSPropertyOp23
 70
     1
102
RTVSPropertyOp24
 70
     1
102
RTVSPropertyOp25
 70
     1
102
RTVSPropertyOp26
 70
     1
102
RTVSPropertyOp27
 70
     1
102
RTVSPropertyOp28
 70
     1
102
RTVSPropertyOp29
 70
     1
102
RTVSPropertyOp30
 70
     1
102
RTVSPropertyOp31
 70
     1
102
RTVSPropertyOp32
 70
     1
  0
XRECORD
  5
5BA
102
{ACAD_REACTORS
330
5B9
102
}
330
5B9
100
AcDbXrecord
280
     1
102
RTVSPropertyOp0
 70
     1
102
RTVSPropertyOp1
 70
     1
102
RTVSPropertyOp2
 70
     1
102
RTVSPropertyOp3
 70
     1
102
RTVSPropertyOp4
 70
     1
102
RTVSPropertyOp5
 70
     1
102
RTVSPropertyOp6
 70
     1
102
RTVSPropertyOp7
 70
     1
102
RTVSPropertyOp8
 70
     1
102
RTVSPropertyOp9
 70
     1
102
RTVSPropertyOp10
 70
     1
102
RTVSPropertyOp11
 70
     1
102
RTVSPropertyOp12
 70
     1
102
RTVSPropertyOp13
 70
     1
102
RTVSPropertyOp14
 70
     1
102
RTVSPropertyOp15
 70
     1
102
RTVSPropertyOp16
 70
     1
102
RTVSPropertyOp17
 70
     1
102
RTVSPropertyOp18
 70
     1
102
RTVSPropertyOp19
 70
     1
102
RTVSPropertyOp20
 70
     1
102
RTVSPropertyOp21
 70
     1
102
RTVSPropertyOp22
 70
     1
102
RTVSPropertyOp23
 70
     1
102
RTVSPropertyOp24
 70
     1
102
RTVSPropertyOp25
 70
     1
102
RTVSPropertyOp26
 70
     1
102
RTVSPropertyOp27
 70
     1
102
RTVSPropertyOp28
 70
     1
102
RTVSPropertyOp29
 70
     1
102
RTVSPropertyOp30
 70
     1
102
RTVSPropertyOp31
 70
     1
102
RTVSPropertyOp32
 70
     1
  0
XRECORD
  5
5AE
102
{ACAD_REACTORS
330
5AD
102
}
330
5AD
100
AcDbXrecord
280
     1
102
RTVSPropertyOp0
 70
     1
102
RTVSPropertyOp1
 70
     1
102
RTVSPropertyOp2
 70
     1
102
RTVSPropertyOp3
 70
     1
102
RTVSPropertyOp4
 70
     1
102
RTVSPropertyOp5
 70
     1
102
RTVSPropertyOp6
 70
     1
102
RTVSPropertyOp7
 70
     1
102
RTVSPropertyOp8
 70
     1
102
RTVSPropertyOp9
 70
     1
102
RTVSPropertyOp10
 70
     1
102
RTVSPropertyOp11
 70
     1
102
RTVSPropertyOp12
 70
     1
102
RTVSPropertyOp13
 70
     1
102
RTVSPropertyOp14
 70
     1
102
RTVSPropertyOp15
 70
     1
102
RTVSPropertyOp16
 70
     1
102
RTVSPropertyOp17
 70
     1
102
RTVSPropertyOp18
 70
     1
102
RTVSPropertyOp19
 70
     1
102
RTVSPropertyOp20
 70
     1
102
RTVSPropertyOp21
 70
     1
102
RTVSPropertyOp22
 70
     1
102
RTVSPropertyOp23
 70
     1
102
RTVSPropertyOp24
 70
     1
102
RTVSPropertyOp25
 70
     1
102
RTVSPropertyOp26
 70
     1
102
RTVSPropertyOp27
 70
     1
102
RTVSPropertyOp28
 70
     1
102
RTVSPropertyOp29
 70
     1
102
RTVSPropertyOp30
 70
     1
102
RTVSPropertyOp31
 70
     1
102
RTVSPropertyOp32
 70
     1
  0
XRECORD
  5
5B0
102
{ACAD_REACTORS
330
5AF
102
}
330
5AF
100
AcDbXrecord
280
     1
102
RTVSPropertyOp0
 70
     1
102
RTVSPropertyOp1
 70
     1
102
RTVSPropertyOp2
 70
     1
102
RTVSPropertyOp3
 70
     1
102
RTVSPropertyOp4
 70
     1
102
RTVSPropertyOp5
 70
     1
102
RTVSPropertyOp6
 70
     1
102
RTVSPropertyOp7
 70
     1
102
RTVSPropertyOp8
 70
     1
102
RTVSPropertyOp9
 70
     1
102
RTVSPropertyOp10
 70
     1
102
RTVSPropertyOp11
 70
     1
102
RTVSPropertyOp12
 70
     1
102
RTVSPropertyOp13
 70
     1
102
RTVSPropertyOp14
 70
     1
102
RTVSPropertyOp15
 70
     1
102
RTVSPropertyOp16
 70
     1
102
RTVSPropertyOp17
 70
     1
102
RTVSPropertyOp18
 70
     1
102
RTVSPropertyOp19
 70
     1
102
RTVSPropertyOp20
 70
     1
102
RTVSPropertyOp21
 70
     1
102
RTVSPropertyOp22
 70
     1
102
RTVSPropertyOp23
 70
     1
102
RTVSPropertyOp24
 70
     1
102
RTVSPropertyOp25
 70
     1
102
RTVSPropertyOp26
 70
     1
102
RTVSPropertyOp27
 70
     1
102
RTVSPropertyOp28
 70
     1
102
RTVSPropertyOp29
 70
     1
102
RTVSPropertyOp30
 70
     1
102
RTVSPropertyOp31
 70
     1
102
RTVSPropertyOp32
 70
     1
  0
XRECORD
  5
5B8
102
{ACAD_REACTORS
330
5B7
102
}
330
5B7
100
AcDbXrecord
280
     1
102
RTVSPropertyOp0
 70
     1
102
RTVSPropertyOp1
 70
     1
102
RTVSPropertyOp2
 70
     1
102
RTVSPropertyOp3
 70
     1
102
RTVSPropertyOp4
 70
     1
102
RTVSPropertyOp5
 70
     1
102
RTVSPropertyOp6
 70
     1
102
RTVSPropertyOp7
 70
     1
102
RTVSPropertyOp8
 70
     1
102
RTVSPropertyOp9
 70
     1
102
RTVSPropertyOp10
 70
     1
102
RTVSPropertyOp11
 70
     1
102
RTVSPropertyOp12
 70
     1
102
RTVSPropertyOp13
 70
     1
102
RTVSPropertyOp14
 70
     1
102
RTVSPropertyOp15
 70
     1
102
RTVSPropertyOp16
 70
     1
102
RTVSPropertyOp17
 70
     1
102
RTVSPropertyOp18
 70
     1
102
RTVSPropertyOp19
 70
     1
102
RTVSPropertyOp20
 70
     1
102
RTVSPropertyOp21
 70
     1
102
RTVSPropertyOp22
 70
     1
102
RTVSPropertyOp23
 70
     1
102
RTVSPropertyOp24
 70
     1
102
RTVSPropertyOp25
 70
     1
102
RTVSPropertyOp26
 70
     1
102
RTVSPropertyOp27
 70
     1
102
RTVSPropertyOp28
 70
     1
102
RTVSPropertyOp29
 70
     1
102
RTVSPropertyOp30
 70
     1
102
RTVSPropertyOp31
 70
     1
102
RTVSPropertyOp32
 70
     1
  0
XRECORD
  5
59C
102
{ACAD_REACTORS
330
59B
102
}
330
59B
100
AcDbXrecord
280
     1
102
RTVSPropertyOp0
 70
     1
102
RTVSPropertyOp1
 70
     1
102
RTVSPropertyOp2
 70
     1
102
RTVSPropertyOp3
 70
     1
102
RTVSPropertyOp4
 70
     1
102
RTVSPropertyOp5
 70
     1
102
RTVSPropertyOp6
 70
     1
102
RTVSPropertyOp7
 70
     1
102
RTVSPropertyOp8
 70
     1
102
RTVSPropertyOp9
 70
     1
102
RTVSPropertyOp10
 70
     1
102
RTVSPropertyOp11
 70
     1
102
RTVSPropertyOp12
 70
     1
102
RTVSPropertyOp13
 70
     1
102
RTVSPropertyOp14
 70
     1
102
RTVSPropertyOp15
 70
     1
102
RTVSPropertyOp16
 70
     1
102
RTVSPropertyOp17
 70
     1
102
RTVSPropertyOp18
 70
     1
102
RTVSPropertyOp19
 70
     1
102
RTVSPropertyOp20
 70
     1
102
RTVSPropertyOp21
 70
     1
102
RTVSPropertyOp22
 70
     1
102
RTVSPropertyOp23
 70
     1
102
RTVSPropertyOp24
 70
     1
102
RTVSPropertyOp25
 70
     1
102
RTVSPropertyOp26
 70
     1
102
RTVSPropertyOp27
 70
     1
102
RTVSPropertyOp28
 70
     1
102
RTVSPropertyOp29
 70
     1
102
RTVSPropertyOp30
 70
     1
102
RTVSPropertyOp31
 70
     1
102
RTVSPropertyOp32
 70
     1
  0
XRECORD
  5
59E
102
{ACAD_REACTORS
330
59D
102
}
330
59D
100
AcDbXrecord
280
     1
102
RTVSPropertyOp0
 70
     1
102
RTVSPropertyOp1
 70
     1
102
RTVSPropertyOp2
 70
     1
102
RTVSPropertyOp3
 70
     1
102
RTVSPropertyOp4
 70
     1
102
RTVSPropertyOp5
 70
     1
102
RTVSPropertyOp6
 70
     1
102
RTVSPropertyOp7
 70
     1
102
RTVSPropertyOp8
 70
     1
102
RTVSPropertyOp9
 70
     1
102
RTVSPropertyOp10
 70
     1
102
RTVSPropertyOp11
 70
     1
102
RTVSPropertyOp12
 70
     1
102
RTVSPropertyOp13
 70
     1
102
RTVSPropertyOp14
 70
     1
102
RTVSPropertyOp15
 70
     1
102
RTVSPropertyOp16
 70
     1
102
RTVSPropertyOp17
 70
     1
102
RTVSPropertyOp18
 70
     1
102
RTVSPropertyOp19
 70
     1
102
RTVSPropertyOp20
 70
     1
102
RTVSPropertyOp21
 70
     1
102
RTVSPropertyOp22
 70
     1
102
RTVSPropertyOp23
 70
     1
102
RTVSPropertyOp24
 70
     1
102
RTVSPropertyOp25
 70
     1
102
RTVSPropertyOp26
 70
     1
102
RTVSPropertyOp27
 70
     1
102
RTVSPropertyOp28
 70
     1
102
RTVSPropertyOp29
 70
     1
102
RTVSPropertyOp30
 70
     1
102
RTVSPropertyOp31
 70
     1
102
RTVSPropertyOp32
 70
     1
  0
XRECORD
  5
5A0
102
{ACAD_REACTORS
330
59F
102
}
330
59F
100
AcDbXrecord
280
     1
102
RTVSPropertyOp0
 70
     1
102
RTVSPropertyOp1
 70
     1
102
RTVSPropertyOp2
 70
     1
102
RTVSPropertyOp3
 70
     1
102
RTVSPropertyOp4
 70
     1
102
RTVSPropertyOp5
 70
     1
102
RTVSPropertyOp6
 70
     1
102
RTVSPropertyOp7
 70
     1
102
RTVSPropertyOp8
 70
     1
102
RTVSPropertyOp9
 70
     1
102
RTVSPropertyOp10
 70
     1
102
RTVSPropertyOp11
 70
     1
102
RTVSPropertyOp12
 70
     1
102
RTVSPropertyOp13
 70
     1
102
RTVSPropertyOp14
 70
     1
102
RTVSPropertyOp15
 70
     1
102
RTVSPropertyOp16
 70
     1
102
RTVSPropertyOp17
 70
     1
102
RTVSPropertyOp18
 70
     1
102
RTVSPropertyOp19
 70
     1
102
RTVSPropertyOp20
 70
     1
102
RTVSPropertyOp21
 70
     1
102
RTVSPropertyOp22
 70
     1
102
RTVSPropertyOp23
 70
     1
102
RTVSPropertyOp24
 70
     1
102
RTVSPropertyOp25
 70
     1
102
RTVSPropertyOp26
 70
     1
102
RTVSPropertyOp27
 70
     1
102
RTVSPropertyOp28
 70
     1
102
RTVSPropertyOp29
 70
     1
102
RTVSPropertyOp30
 70
     1
102
RTVSPropertyOp31
 70
     1
102
RTVSPropertyOp32
 70
     1
  0
XRECORD
  5
5A2
102
{ACAD_REACTORS
330
5A1
102
}
330
5A1
100
AcDbXrecord
280
     1
102
RTVSPropertyOp0
 70
     1
102
RTVSPropertyOp1
 70
     1
102
RTVSPropertyOp2
 70
     1
102
RTVSPropertyOp3
 70
     1
102
RTVSPropertyOp4
 70
     1
102
RTVSPropertyOp5
 70
     1
102
RTVSPropertyOp6
 70
     1
102
RTVSPropertyOp7
 70
     1
102
RTVSPropertyOp8
 70
     1
102
RTVSPropertyOp9
 70
     1
102
RTVSPropertyOp10
 70
     1
102
RTVSPropertyOp11
 70
     1
102
RTVSPropertyOp12
 70
     1
102
RTVSPropertyOp13
 70
     1
102
RTVSPropertyOp14
 70
     1
102
RTVSPropertyOp15
 70
     1
102
RTVSPropertyOp16
 70
     1
102
RTVSPropertyOp17
 70
     1
102
RTVSPropertyOp18
 70
     1
102
RTVSPropertyOp19
 70
     1
102
RTVSPropertyOp20
 70
     1
102
RTVSPropertyOp21
 70
     1
102
RTVSPropertyOp22
 70
     1
102
RTVSPropertyOp23
 70
     1
102
RTVSPropertyOp24
 70
     1
102
RTVSPropertyOp25
 70
     1
102
RTVSPropertyOp26
 70
     1
102
RTVSPropertyOp27
 70
     1
102
RTVSPropertyOp28
 70
     1
102
RTVSPropertyOp29
 70
     1
102
RTVSPropertyOp30
 70
     1
102
RTVSPropertyOp31
 70
     1
102
RTVSPropertyOp32
 70
     1
  0
XRECORD
  5
5B6
102
{ACAD_REACTORS
330
5B5
102
}
330
5B5
100
AcDbXrecord
280
     1
102
RTVSPropertyOp0
 70
     1
102
RTVSPropertyOp1
 70
     1
102
RTVSPropertyOp2
 70
     1
102
RTVSPropertyOp3
 70
     1
102
RTVSPropertyOp4
 70
     1
102
RTVSPropertyOp5
 70
     1
102
RTVSPropertyOp6
 70
     1
102
RTVSPropertyOp7
 70
     1
102
RTVSPropertyOp8
 70
     1
102
RTVSPropertyOp9
 70
     1
102
RTVSPropertyOp10
 70
     1
102
RTVSPropertyOp11
 70
     1
102
RTVSPropertyOp12
 70
     1
102
RTVSPropertyOp13
 70
     1
102
RTVSPropertyOp14
 70
     1
102
RTVSPropertyOp15
 70
     1
102
RTVSPropertyOp16
 70
     1
102
RTVSPropertyOp17
 70
     1
102
RTVSPropertyOp18
 70
     1
102
RTVSPropertyOp19
 70
     1
102
RTVSPropertyOp20
 70
     1
102
RTVSPropertyOp21
 70
     1
102
RTVSPropertyOp22
 70
     1
102
RTVSPropertyOp23
 70
     1
102
RTVSPropertyOp24
 70
     1
102
RTVSPropertyOp25
 70
     1
102
RTVSPropertyOp26
 70
     1
102
RTVSPropertyOp27
 70
     1
102
RTVSPropertyOp28
 70
     1
102
RTVSPropertyOp29
 70
     1
102
RTVSPropertyOp30
 70
     1
102
RTVSPropertyOp31
 70
     1
102
RTVSPropertyOp32
 70
     1
  0
XRECORD
  5
5AC
102
{ACAD_REACTORS
330
5AB
102
}
330
5AB
100
AcDbXrecord
280
     1
102
RTVSPropertyOp0
 70
     1
102
RTVSPropertyOp1
 70
     1
102
RTVSPropertyOp2
 70
     1
102
RTVSPropertyOp3
 70
     1
102
RTVSPropertyOp4
 70
     1
102
RTVSPropertyOp5
 70
     1
102
RTVSPropertyOp6
 70
     1
102
RTVSPropertyOp7
 70
     1
102
RTVSPropertyOp8
 70
     1
102
RTVSPropertyOp9
 70
     1
102
RTVSPropertyOp10
 70
     1
102
RTVSPropertyOp11
 70
     1
102
RTVSPropertyOp12
 70
     1
102
RTVSPropertyOp13
 70
     1
102
RTVSPropertyOp14
 70
     1
102
RTVSPropertyOp15
 70
     1
102
RTVSPropertyOp16
 70
     1
102
RTVSPropertyOp17
 70
     1
102
RTVSPropertyOp18
 70
     1
102
RTVSPropertyOp19
 70
     1
102
RTVSPropertyOp20
 70
     1
102
RTVSPropertyOp21
 70
     1
102
RTVSPropertyOp22
 70
     1
102
RTVSPropertyOp23
 70
     1
102
RTVSPropertyOp24
 70
     1
102
RTVSPropertyOp25
 70
     1
102
RTVSPropertyOp26
 70
     1
102
RTVSPropertyOp27
 70
     1
102
RTVSPropertyOp28
 70
     1
102
RTVSPropertyOp29
 70
     1
102
RTVSPropertyOp30
 70
     1
102
RTVSPropertyOp31
 70
     1
102
RTVSPropertyOp32
 70
     1
  0
XRECORD
  5
5B4
102
{ACAD_REACTORS
330
5B3
102
}
330
5B3
100
AcDbXrecord
280
     1
102
RTVSPropertyOp0
 70
     1
102
RTVSPropertyOp1
 70
     1
102
RTVSPropertyOp2
 70
     1
102
RTVSPropertyOp3
 70
     1
102
RTVSPropertyOp4
 70
     1
102
RTVSPropertyOp5
 70
     1
102
RTVSPropertyOp6
 70
     1
102
RTVSPropertyOp7
 70
     1
102
RTVSPropertyOp8
 70
     1
102
RTVSPropertyOp9
 70
     1
102
RTVSPropertyOp10
 70
     1
102
RTVSPropertyOp11
 70
     1
102
RTVSPropertyOp12
 70
     1
102
RTVSPropertyOp13
 70
     1
102
RTVSPropertyOp14
 70
     1
102
RTVSPropertyOp15
 70
     1
102
RTVSPropertyOp16
 70
     1
102
RTVSPropertyOp17
 70
     1
102
RTVSPropertyOp18
 70
     1
102
RTVSPropertyOp19
 70
     1
102
RTVSPropertyOp20
 70
     1
102
RTVSPropertyOp21
 70
     1
102
RTVSPropertyOp22
 70
     1
102
RTVSPropertyOp23
 70
     1
102
RTVSPropertyOp24
 70
     1
102
RTVSPropertyOp25
 70
     1
102
RTVSPropertyOp26
 70
     1
102
RTVSPropertyOp27
 70
     1
102
RTVSPropertyOp28
 70
     1
102
RTVSPropertyOp29
 70
     1
102
RTVSPropertyOp30
 70
     1
102
RTVSPropertyOp31
 70
     1
102
RTVSPropertyOp32
 70
     1
  0
ENDSEC
  0
EOF
